Share with Your Friends

Download 20 Ft Below The Darkness Descending 2014 HDRip x264 AC3-TiTAN
iMDB

Download 20 Ft Below The Darkness Descending 2014 HDRip x264 AC3-TiTAN

Plot

Below the streets of New York is a dark and dangerous world hidden in the shadows of abandoned subway tunnels and miles of forgotten infrastructure. When a young documentary filmmaker goes into these tunnels to uncover the unseen stories of the people living below our feet, she finds out that there is more to be afraid of than the dark. A mysterious figure, living beyond the reach of the law, has declared war on the outside world that threatens to tear apart the fragile underground society living in the tunnels and maybe even the city above it.

Information

General
Format : Matroska
Format version : Version 2
File size : 736 MiB
Duration : 1h 36mn
Overall bit rate mode : Variable
Overall bit rate : 1 071 Kbps
Encoded date : UTC 2014-03-19 12:29:20
Writing application : mkvmerge v6.8.0 (‘Theme for Great Cities’) 32bit built on >>
Mar 2 2014 21:27:07
Writing library : libebml v1.3.0 + libmatroska v1.4.1

Video
ID : 1
Format : AVC
Format/Info : Advanced Video Codec
Format profile : High@L4.1
Format settings, CABAC : Yes
Format settings, ReFrames : 3 frames
Codec ID : V_MPEG4/ISO/AVC
Duration : 1h 36mn
Bit rate mode : Variable
Bit rate : 825 Kbps
Maximum bit rate : 40.0 Mbps
Width : 720 pixels
Height : 400 pixels
Display aspect ratio : 16:9
Frame rate mode : Constant
Frame rate : 23.976 fps
Color space : YUV
Chroma subsampling : 4:2:0
Bit depth : 8 bits
Scan type : Progressive
Bits/(Pixel*Frame) : 0.120
Stream size : 567 MiB (77%)
Writing library : x264 core 142 r2409 d6b4e63
Default : Yes
Forced : No
Color primaries : BT.709
Transfer characteristics : BT.709
Matrix coefficients : BT.709

Audio
ID : 2
Format : AC-3
Format/Info : Audio Coding 3
Mode extension : CM (complete main)
Format settings, Endianness : Big
Codec ID : A_AC3
Duration : 1h 36mn
Bit rate mode : Constant
Bit rate : 224 Kbps
Channel(s) : 2 channels
Channel positions : Front: L R
Sampling rate : 48.0 KHz
Bit depth : 16 bits
Compression mode : Lossy
Stream size : 154 MiB (21%)
Language : English
Default : Yes
Forced : No

Download 20 Ft Below The Darkness Descending 2014 HDRip x264 AC3-TiTAN

Download 20 Ft Below The Darkness Descending 2014 HDRip x264 AC3-TiTAN

Download 20 Ft Below The Darkness Descending 2014 HDRip x264 AC3-TiTAN

Download 20 Ft Below The Darkness Descending 2014 HDRip x264 AC3-TiTAN

Download 20 Ft Below The Darkness Descending 2014 HDRip x264 AC3-TiTAN

Download 20 Ft Below The Darkness Descending 2014 HDRip x264 AC3-TiTAN

Download 20 Ft Below The Darkness Descending 2014 HDRip x264 AC3-TiTAN

MultiUpload

Click Here to Download

Click Here to Download

Sockshare

Click Here to Download

Click Here to Download

PutLocker (FireDrive)

Click Here to Download

Click Here to Download

TurboBit

Click Here to Download

Click Here to Download

Uploaded.to

Click Here to Download

Click Here to Download

NetLoad

Click Here to Download

Click Here to Download
Share with Your Friends
Written by ED12