Share with Your Friends

Download 3 Nights in the Desert 2014 720p WEB-DL DD5.1 H264-RARBG
iMDB

Download 3 Nights in the Desert 2014 720p WEB-DL DD5.1 H264-RARBG

Plot

THE BIG CHILL meets THE GRADUATE. What could have been? What might have been? Reunions can be exciting, frustrating, exhilarating, nostalgic, one life given over to practicality while another chases lost dreams. Set against the majestic landscape of the desert, three estranged friends and former band mates “celebrate” turning 30, carrying their hopes, unresolved wounds and intertwined romantic baggage, in this hysterically funny and poignant look at lost loves, forgotten dreams and missed opportunity of three young adults in the final stages of giving up their youth.

Information

Video
ID : 1
Format : AVC
Format/Info : Advanced Video Codec
Format profile : Main L3.1
Format settings, CABAC : No
Format settings, ReFrames : 2 frames
Codec ID : V_MPEG4/ISO/AVC
Duration : 1h 22mn
Bit rate : 3 968 Kbps
Width : 1 280 pixels
Height : 520 pixels
Display aspect ratio : 2.462
Frame rate mode : Constant
Frame rate : 23.976 fps
Color space : YUV
Chroma subsampling : 4:2:0
Bit depth : 8 bits
Scan type : Progressive
Bits/(Pixel*Frame) : 0.249
Stream size : 2.30 GiB (89%)
Language : English
Default : Yes
Forced : No
Color primaries : BT.709
Transfer characteristics : BT.709
Matrix coefficients : BT.709
Color range : Limited

Audio
ID : 2
Format : AC-3
Format/Info : Audio Coding 3
Mode extension : CM (complete main)
Format settings, Endianness : Big
Codec ID : A_AC3
Duration : 1h 22mn
Bit rate mode : Constant
Bit rate : 384 Kbps
Channel(s) : 6 channels
Channel positions : Front: L C R, Side: L R, LFE
Sampling rate : 48.0 KHz
Bit depth : 16 bits
Compression mode : Lossy
Stream size : 228 MiB (9%)
Language : English
Default : Yes
Forced : No

Download 3 Nights in the Desert 2014 720p WEB-DL DD5.1 H264-RARBG

Download 3 Nights in the Desert 2014 720p WEB-DL DD5.1 H264-RARBG

Download 3 Nights in the Desert 2014 720p WEB-DL DD5.1 H264-RARBG

24Uploading (Recommended)

Click Here to Download

Click Here to Download


Click Here to Download


Click Here to Download

HugeFile

Click Here to Download

Click Here to Download


Click Here to Download


Click Here to Download

TurboBit

Click Here to Download

Click Here to Download


Click Here to Download


Click Here to Download

Uploaded

Click Here to Download

Click Here to Download


Click Here to Download


Click Here to Download

RapidGator

Click Here to Download

Click Here to Download


Click Here to Download


Click Here to Download
Share with Your Friends
Written by ED12