Share with Your Friends

Download 47 Ronin (2013 ) R6 720p WEBRip  1.11GB
iMDB

Download 47 Ronin (2013 ) R6 720p WEBRip 1.11GB

Plot

A band of samurai set out to avenge the death and dishonor of their master at the hands of a ruthless shogun.

Information

Video
ID : 1
Format : RealVideo 4
Codec ID : RV40
Codec ID/Info : Based on AVC (H.264), Real Player 9
Duration : 1h 54min
Bit rate : 1 266 Kbps
Width : 1 280 Pixel
Height : 720 Pixel
Display aspect ratio : 16:9
Frame rate : 23,976 FPS
Bits/(Pixel*Frame) : 0.057
Stream size : 1,01 GiB (91%)

Audio
ID : 0
Format : AAC
Format/Info : Advanced Audio Codec
Format profile : LC
Codec ID : raac
Codec ID/Info : Real Player 9
Duration : 1h 54min
Bit rate : 96,0 Kbps
Channel(s) : 2 KanΣle
Sampling rate : 44,1 KHz
Bit depth : 16 bits
Stream size : 78,8 MiB (7%)

Download 47 Ronin (2013 ) R6 720p WEBRip  1.11GB

Download 47 Ronin (2013 ) R6 720p WEBRip  1.11GB

Download 47 Ronin (2013 ) R6 720p WEBRip  1.11GB

Download 47 Ronin (2013 ) R6 720p WEBRip 1.11GB

FireDrive,Sockshare(Putlocker),180Upload,BillionUpload,MightyUpload+5

Click Here to Download

BinBox Pass If Asked :

s8kcazrt
Share with Your Friends
Written by master