Share with Your Friends

Download 47 Ronin (2013) R6 720p WEBRip-P2PDL
iMDB

Download 47 Ronin (2013) R6 720p WEBRip-P2PDL

Plot

While hunting in the forest, Lord Asano of Ako and his samurai find a young half-breed and take him with them to live in the castle. Several years later, Lord Asano holds a tournament to welcome the Shogun to Ako. The night after the tournament, Lord Asano is bewitched into hurting Lord Kira of Nagato, and is punished into committing seppuku by the Shogun. Realizing that it was a Lord Kira’s evil plot, the samurais and the half-breed sets out for revenge against the Shogun’s order.

Information

Video
ID : 1
Format : RealVideo 4
Codec ID : RV40
Codec ID/Info : Based on AVC (H.264), Real Player 9
Duration : 1h 54min
Bit rate : 1 266 Kbps
Width : 1 280 Pixel
Height : 720 Pixel
Display aspect ratio : 16:9
Frame rate : 23,976 FPS
Bits/(Pixel*Frame) : 0.057
Stream size : 1,01 GiB (91%)

Audio
ID : 0
Format : AAC
Format/Info : Advanced Audio Codec
Format profile : LC
Codec ID : raac
Codec ID/Info : Real Player 9
Duration : 1h 54min
Bit rate : 96,0 Kbps
Channel(s) : 2 KanΣle
Sampling rate : 44,1 KHz
Bit depth : 16 bits
Stream size : 78,8 MiB (7%)

Download 47 Ronin (2013) R6 720p WEBRip-P2PDL

Download 47 Ronin (2013) R6 720p WEBRip-P2PDL

Download 47 Ronin (2013) R6 720p WEBRip-P2PDL

Download 47 Ronin (2013) R6 720p WEBRip-P2PDL

MultiUpload

Click Here to Download

Click Here to Download


Click Here to Download

Sockshare

Click Here to Download

Click Here to Download


Click Here to Download

Uploaded.to

Click Here to Download

Click Here to Download


Click Here to Download

RapidGator

Click Here to Download

Click Here to Download


Click Here to Download
Share with Your Friends
Written by ED12