Share with Your Friends


iMDB

Download A Haunted House 2 2014 1080p WEB-DL DD5.1 H264-RARBG

Plot

After losing his beloved Kisha in a car accident, Malcolm starts anew, by remarrying Megan, a mother of two. When things begin to get back into their paranormal ways, targeting both the children and the property, things complicate even more when his back-to-life Kisha moves into the neighborhood.

Information

Video
ID : 1
Format : AVC
Format/Info : Advanced Video Codec
Format profile : High@L4.0
Format settings, CABAC : Yes
Format settings, ReFrames : 4 frames
Codec ID : V_MPEG4/ISO/AVC
Duration : 1h 26mn
Bit rate : 4 600 Kbps
Width : 1 916 pixels
Height : 1 032 pixels
Display aspect ratio : 1.85:1
Frame rate mode : Constant
Frame rate : 23.976 fps
Color space : YUV
Chroma subsampling : 4:2:0
Bit depth : 8 bits
Scan type : Progressive
Bits/(Pixel*Frame) : 0.097
Stream size : 2.79 GiB (90%)
Title : A.Haunted.House.2.2014.1080p.WEB-DL.DD5.1.H264-RARBG
Language : English
Default : Yes
Forced : No
Color primaries : BT.709
Transfer characteristics : BT.709
Matrix coefficients : BT.709

Audio
ID : 2
Format : AC-3
Format/Info : Audio Coding 3
Mode extension : CM (complete main)
Format settings, Endianness : Big
Codec ID : A_AC3
Duration : 1h 26mn
Bit rate mode : Constant
Bit rate : 384 Kbps
Channel(s) : 6 channels
Channel positions : Front: L C R, Side: L R, LFE
Sampling rate : 48.0 KHz
Bit depth : 16 bits
Compression mode : Lossy
Stream size : 238 MiB (8%)
Title : A.Haunted.House.2.2014.1080p.WEB-DL.DD5.1.H264-RARBG
Language : English
Default : Yes
Forced : No

Text
ID : 3
Format : UTF-8
Codec ID : S_TEXT/UTF8
Codec ID/Info : UTF-8 Plain Text
Language : English
Default : Yes
Forced : No

Download A Haunted House 2 2014 1080p WEB-DL DD5.1 H264-RARBG

PutLocker (FireDrive)

Click Here to Download

Uploaded.to

Click Here to Download

fileom

Click Here to Download
Share with Your Friends
Written by ED12