Share with Your Friends

Download American Sniper 2014 720p HC WEBRip x264 AAC2.0-RARBG
iMDB

Download American Sniper 2014 720p HC WEBRip x264 AAC2.0-RARBG

Plot

Navy SEAL sniper Chris Kyle’s pinpoint accuracy saves countless lives on the battlefield and turns him into a legend. Back home to his wife and kids after four tours of duty, however, Chris finds that it is the war he can’t leave behind.

Information

Video
ID : 1
Format : AVC
Format/Info : Advanced Video Codec
Format profile : High@L4.1
Format settings, CABAC : Yes
Format settings, ReFrames : 4 frames
Codec ID : avc1
Codec ID/Info : Advanced Video Coding
Duration : 2h 12mn
Bit rate : 2 842 Kbps
Width : 1 280 pixels
Height : 532 pixels
Display aspect ratio : 2.40:1
Frame rate mode : Constant
Frame rate : 23.976 fps
Color space : YUV
Chroma subsampling : 4:2:0
Bit depth : 8 bits
Scan type : Progressive
Bits/(Pixel*Frame) : 0.174
Stream size : 2.63 GiB (93%)

Audio
ID : 2
Format : AAC
Format/Info : Advanced Audio Codec
Format profile : LC
Codec ID : 40
Duration : 2h 12mn
Bit rate mode : Constant
Bit rate : 224 Kbps
Channel(s) : 2 channels
Channel positions : Front: L R
Sampling rate : 48.0 KHz
Compression mode : Lossy
Stream size : 212 MiB (7%)

Download American Sniper 2014 720p HC WEBRip x264 AAC2.0-RARBG

Download American Sniper 2014 720p HC WEBRip x264 AAC2.0-RARBG

Download American Sniper 2014 720p HC WEBRip x264 AAC2.0-RARBG

Download American Sniper 2014 720p HC WEBRip x264 AAC2.0-RARBG

Download American Sniper 2014 720p HC WEBRip x264 AAC2.0-RARBG

24Uploading (Recommended)

Click Here to Download

Click Here to Download


Click Here to Download


Click Here to Download

HugeFile

Click Here to Download

Click Here to Download


Click Here to Download


Click Here to Download

Uploaded

Click Here to Download

Click Here to Download


Click Here to Download


Click Here to Download

RapidGator

Click Here to Download

Click Here to Download


Click Here to Download


Click Here to Download
Share with Your Friends
Written by ED12