Share with Your Friends

Download Apparition 2014 720p WEB-DL DD5.1 H264-RARBG

iMDB

Download Apparition 2014 720p WEB-DL DD5.1 H264-RARBG

Plot

Apparition is a supernatural thriller exploring the themes of love, death, and the fragility of the mind. When Doug’s fiancee, Lori, is killed in a car accident, he retreats to their isolated farmhouse to deal with his loss. Left to grieve amid years of memories, Doug realizes he has not returned alone. As he learns the tragic history of the farmhouse, supernatural occurrences leave him fearing for his sanity, and reveal a secret Lori took with her to the grave. Struggling to determine whether what he is seeing is real, or all in his head, Doug finds solace in the company of Jamie, a local grad student. As their friendship deepens, Doug draws her with him into the horrifying events unfolding in the old farmhouse.
Information

Video
ID : 1
Format : AVC
Format/Info : Advanced Video Codec
Format profile : High L3.1
Format settings, CABAC : No
Format settings, ReFrames : 2 frames
Codec ID : V_MPEG4/ISO/AVC
Duration : 1h 35mn
Bit rate : 3 843 Kbps
Width : 1 280 pixels
Height : 688 pixels
Display aspect ratio : 1.85:1
Frame rate mode : Constant
Frame rate : 23.976 fps
Color space : YUV
Chroma subsampling : 4:2:0
Bit depth : 8 bits
Scan type : Progressive
Bits/(Pixel*Frame) : 0.182
Stream size : 2.56 GiB (89%)
Language : English
Default : Yes
Forced : No
Color primaries : BT.709
Transfer characteristics : BT.709
Matrix coefficients : BT.709
Color range : Limited

Audio
ID : 2
Format : AC-3
Format/Info : Audio Coding 3
Mode extension : CM (complete main)
Format settings, Endianness : Big
Codec ID : A_AC3
Duration : 1h 35mn
Bit rate mode : Constant
Bit rate : 384 Kbps
Channel(s) : 6 channels
Channel positions : Front: L C R, Side: L R, LFE
Sampling rate : 48.0 KHz
Bit depth : 16 bits
Compression mode : Lossy
Stream size : 262 MiB (9%)
Language : English
Default : Yes
Forced : No
Download Apparition 2014 720p WEB-DL DD5.1 H264-RARBG
Download Apparition 2014 720p WEB-DL DD5.1 H264-RARBG
Download Apparition 2014 720p WEB-DL DD5.1 H264-RARBG
Download Apparition 2014 720p WEB-DL DD5.1 H264-RARBG

UptoBox

Click Here to Download

Click Here to Download


Click Here to Download


Click Here to Download

HugeFile

Click Here to Download

Click Here to Download


Click Here to Download


Click Here to Download

Uploaded

Click Here to Download

Click Here to Download


Click Here to Download


Click Here to Download

RapidGator

Click Here to Download

Click Here to Download


Click Here to Download


Click Here to Download
Share with Your Friends
Written by ED12