Share with Your Friends

Download Aroused 2013 WEB-DL XviD MP3-RARBG
iMDB

Download Aroused 2013 WEB-DL XviD MP3-RARBG

Plot

A documentary that captures the making of a fine art photographic book featuring 16 of the world’s most successful adult film stars.

Information

Format : AVI
Format/Info : Audio Video Interleave
File size : 691 MiB
Duration : 1h 8mn
Overall bit rate : 1 400 Kbps
Movie name : RARBG.COM – Aroused.2013.WEB-DL.XviD.MP3-RARBG
Writing library : VirtualDub build 35491/release
Comment : RARBG.COM – Aroused.2013.WEB-DL.XviD.MP3-RARBG

Video
ID : 0
Format : MPEG-4 Visual
Format profile : Simple@L5
Format settings, BVOP : No
Format settings, QPel : No
Format settings, GMC : No warppoints
Format settings, Matrix : Default (H.263)
Codec ID : XVID
Codec ID/Hint : XviD
Duration : 1h 8mn
Bit rate : 1 195 Kbps
Width : 720 pixels
Height : 400 pixels
Display aspect ratio : 16:9
Frame rate : 25.000 fps
Color space : YUV
Chroma subsampling : 4:2:0
Bit depth : 8 bits
Scan type : Progressive
Compression mode : Lossy
Bits/(Pixel*Frame) : 0.166
Stream size : 590 MiB (85%)
Writing library : Lavc55.61.100

Audio
ID : 1
Format : MPEG Audio
Format version : Version 1
Format profile : Layer 3
Mode : Joint stereo
Mode extension : MS Stereo
Codec ID : 55
Codec ID/Hint : MP3
Duration : 1h 8mn
Bit rate mode : Constant
Bit rate : 192 Kbps
Channel(s) : 2 channels
Sampling rate : 48.0 KHz
Compression mode : Lossy
Stream size : 94.7 MiB (14%)
Alignment : Aligned on interleaves
Interleave, duration : 24 ms (0.60 video frame)
Interleave, preload duration : 504 ms

Download Aroused 2013 WEB-DL XviD MP3-RARBG

Download Aroused 2013 WEB-DL XviD MP3-RARBG

Download Aroused 2013 WEB-DL XviD MP3-RARBG

Download Aroused 2013 WEB-DL XviD MP3-RARBG

Download Aroused 2013 WEB-DL XviD MP3-RARBG

HugeFile

Click Here to Download

180Upload

Click Here to Download

Sockshare

Click Here to Download

PutLocker (FireDrive)

Click Here to Download

TurboBit

Click Here to Download

Uploaded.to

Click Here to Download

RapidGator

Click Here to Download
Share with Your Friends
Written by ED12