Share with Your Friends

Download Assassin (2014) BluRay 720p 700MB - YIFY
iMDB

Download Assassin (2014) BluRay 720p 700MB – YIFY

Plot

Ruthless killer for hire (Danny Dyer) breaks the rules of his profession and falls for a beautiful young woman. Discovering the notorious gangland brothers (Martin & Gary Kemp) had hired him to kill her father, his world breaks down and he must turn against his criminal employers and their gang to save the woman he loves.

Information

General
Format : MPEG-4
Format profile : Base Media
Codec ID : isom
File size : 693 MiB
Duration : 1h 22mn
Overall bit rate mode : Variable

Video
ID : 1
Format : AVC
Format/Info : Advanced Video Codec
Format profile : High@L4.1
Format settings, CABAC : Yes
Format settings, ReFrames : 4 frames
Codec ID : avc1
Codec ID/Info : Advanced Video Coding
Duration : 1h 22mn
Bit rate : 1 082 Kbps
Maximum bit rate : 6 845 Kbps
Width : 1 280 pixels
Height : 536 pixels
Display aspect ratio : 2.40:1
Frame rate mode : Constant
Frame rate : 23.976 fps
Color space : YUV
Chroma subsampling : 4:2:0
Bit depth : 8 bits
Scan type : Progressive
Bits/(Pixel*Frame) : 0.066
Stream size : 635 MiB (92%)

Audio
ID : 2
Format : AAC
Format/Info : Advanced Audio Codec
Format profile : LC
Codec ID : 40
Duration : 1h 22mn
Bit rate mode : Variable
Bit rate : 93.7 Kbps
Maximum bit rate : 103 Kbps
Channel(s) : 2 channels
Channel positions : Front: L R
Sampling rate : 48.0 KHz
Compression mode : Lossy
Stream size : 55.0 MiB (8%)
Language : English

Download Assassin (2014) BluRay 720p 700MB - YIFY

Download Assassin (2014) BluRay 720p 700MB - YIFY

Download Assassin (2014) BluRay 720p 700MB – YIFY

200MB Links

ZippyShare

Click Here to Download

Click Here to Download


Click Here to Download


Click Here to Download

Single Links

24Uploading (Recommended)

Click Here to Download

HugeFile

Click Here to Download

TurboBit

Click Here to Download

Uploaded

Click Here to Download

RapidGator

Click Here to Download
Share with Your Friends
Written by ED12