Share with Your Friends

Download Asterix The Mansions of the Gods 2014 FRENCH 1080p BluRay x264 DTS-Goatlove
iMDB

Download Asterix The Mansions of the Gods 2014 FRENCH 1080p BluRay x264 DTS-Goatlove

Plot

In order to wipe out the Gaulish village by any means necessary, Caesar plans to absorb the villagers into Roman culture by having an estate built next to the village to start a new Roman colony.

Information

General
Format : Matroska
Format version : Version 2
File size : 4.37 GiB
Duration : 1h 25mn
Overall bit rate : 7 314 Kbps

Video
ID : 1
Format : AVC
Format/Info : Advanced Video Codec
Format profile : High L4.1
Format settings, CABAC : Yes
Format settings, ReFrames : 4 frames
Codec ID : V_MPEG4/ISO/AVC
Duration : 1h 25mn
Bit rate : 5 804 Kbps
Width : 1 920 pixels
Height : 1 040 pixels
Display aspect ratio : 1.85:1
Frame rate mode : Constant
Frame rate : 23.976 fps
Color space : YUV
Chroma subsampling : 4:2:0
Bit depth : 8 bits
Scan type : Progressive
Bits/(Pixel*Frame) : 0.121
Stream size : 3.38 GiB (77%)
Default : Yes
Forced : No

Audio
ID : 2
Format : DTS
Format/Info : Digital Theater Systems
Mode : 16
Format settings, Endianness : Big
Codec ID : A_DTS
Duration : 1h 25mn
Bit rate mode : Constant
Bit rate : 1 509 Kbps
Channel(s) : 6 channels
Channel positions : Front: L C R, Side: L R, LFE
Sampling rate : 48.0 KHz
Bit depth : 24 bits
Compression mode : Lossy
Stream size : 923 MiB (21%)
Title : French
Language : French
Default : Yes
Forced : No

Download Asterix The Mansions of the Gods 2014 FRENCH 1080p BluRay x264 DTS-Goatlove

Download Asterix The Mansions of the Gods 2014 FRENCH 1080p BluRay x264 DTS-Goatlove

Download Asterix The Mansions of the Gods 2014 FRENCH 1080p BluRay x264 DTS-Goatlove

Download Asterix The Mansions of the Gods 2014 FRENCH 1080p BluRay x264 DTS-Goatlove

24Uploading (Recommended)

Click Here to Download

Click Here to Download


Click Here to Download


Click Here to Download


Click Here to Download


Click Here to Download

Uploaded

Click Here to Download

Click Here to Download


Click Here to Download


Click Here to Download


Click Here to Download


Click Here to Download

RapidGator

Click Here to Download

Click Here to Download


Click Here to Download


Click Here to Download


Click Here to Download


Click Here to Download
Share with Your Friends
Written by ED12