Share with Your Friends

Baggage Claim 2013 CAM AC3 - MURDER 500MB
iMDB

Baggage Claim 2013 CAM AC3 – MURDER 500MB

Pledging to keep herself from being the oldest and the only woman in her entire family never to wed, Montana embarks on a thirty-day, thirty-thousand-mile expedition to charm a potential suitor into becoming her fianc?

Baggage Claim 2013 CAM AC3 MURDER

Pledging to keep herself from being the oldest and the only woman in her entire family never to wed, Montana embarks on a thirty-day, thirty-thousand-mile expedition to charm a potential suitor into becoming her fianc?.

Format : Matroska
Format version : Version 2
File size : 421 MiB
Duration : 1h 33mn
Overall bit rate : 629 Kbps
Encoded date : UTC 2013-10-06 08:50:50
Writing application : mkvmerge v6.2.0 (‘Promised Land’) built on Apr 28 2013 12:22:01
Writing library : libebml v1.3.0 + libmatroska v1.4.0

Video
ID : 1
Format : AVC
Format/Info : Advanced Video Codec
Format profile : High@L2.1
Format settings, CABAC : Yes
Format settings, ReFrames : 4 frames
Codec ID : V_MPEG4/ISO/AVC
Duration : 1h 33mn
Bit rate : 489 Kbps
Width : 512 pixels
Height : 260 pixels
Display aspect ratio : 1.977
Original display aspect ratio : 1.978
Frame rate mode : Constant
Frame rate : 29.970 fps
Color space : YUV
Chroma subsampling : 4:2:0
Bit depth : 8 bits
Scan type : Progressive
Bits/(Pixel*Frame) : 0.122
Stream size : 327 MiB (78%)
Writing library : x264 core
Default : Yes
Forced : No

Audio
ID : 2
Format : AC-3
Format/Info : Audio Coding 3
Mode extension : CM (complete main)
Format settings, Endianness : Big
Codec ID : A_AC3
Duration : 1h 33mn
Bit rate mode : Constant
Bit rate : 128 Kbps
Channel count : 2 channels
Channel positions : Front: L R
Sampling rate : 32.0 KHz
Bit depth : 16 bits
Compression mode : Lossy
Stream size : 85.7 MiB (20%)
Default : Yes
Forced : No

Baggage Claim 2013 CAM AC3 - MURDER 500MB

Baggage Claim 2013 CAM AC3 - MURDER 500MB

Baggage Claim 2013 CAM AC3 - MURDER 500MB

Baggage Claim 2013 CAM AC3 MURDER

RapidGator

Click Here to Download

Uploaded.to

Click Here to Download

BillionUploads

Click Here to Download

180Upload

Click Here to Download

PutLocker

Click Here to Download
Share with Your Friends
Written by DaaD