Share with Your Friends

Download Battle for Skyark 2015 HDRip XViD-ETRG

iMDB

Download Battle for Skyark 2015 HDRip XViD-ETRG

Plot

In the near future the earth has become desolate and dangerous. Taken over by a mysterious race of creatures, humanity has been forced to find refuge in the SkyArk, a man-made city in the sky. But as populations grow, space becomes less and less and only the rich and powerful stay dumping the poor and orphaned of SkyArk to the abandoned earth. An internal uprising begins, but fails costing the leading commander of the uprising to lose his life. His son, Rags, is branded with 13 marks of shame and exiled to earth where he is met with his fellow exiles. There he learns that it was prophesied that “the son of the uprising commander with 13 marks” would come to save them. Rags must now lead his fellow orphans to safety among the ruins of old earth battling through the horde of monsters to return to SkyArk and bring peace to the people.
Information

General
Format : AVI
Format/Info : Audio Video Interleave
File size : 698 MiB
Duration : 1h 28mn
Overall bit rate : 1 108 Kbps

Video
ID : 0
Format : MPEG-4 Visual
Format profile : Advanced Simple L5
Format settings, BVOP : 2
Format settings, QPel : No
Format settings, GMC : No warppoints
Format settings, Matrix : Default (H.263)
Muxing mode : Packed bitstream
Codec ID : XVID
Codec ID/Hint : XviD
Duration : 1h 28mn
Bit rate : 970 Kbps
Width : 640 pixels
Height : 272 pixels
Display aspect ratio : 2.35:1
Frame rate : 23.976 fps
Color space : YUV
Chroma subsampling : 4:2:0
Bit depth : 8 bits
Scan type : Progressive
Compression mode : Lossy
Bits/(Pixel*Frame) : 0.232
Stream size : 611 MiB (88%)
Writing library : XviD 66

Audio
ID : 1
Format : MPEG Audio
Format version : Version 1
Format profile : Layer 3
Mode : Joint stereo
Mode extension : MS Stereo
Codec ID : 55
Codec ID/Hint : MP3
Duration : 1h 28mn
Bit rate mode : Constant
Bit rate : 128 Kbps
Channel(s) : 2 channels
Sampling rate : 48.0 KHz
Compression mode : Lossy
Stream size : 80.6 MiB (12%)
Alignment : Split accross interleaves
Interleave, duration : 42 ms (1.00 video frame)
Interleave, preload duration : 500 ms
Writing library : LAME3.99r
Encoding settings : -m j -V 4 -q 3 -lowpass 17 -b 128
Download Battle for Skyark 2015 HDRip XViD-ETRG

Download Battle for Skyark 2015 HDRip XViD-ETRG

24Uploading (Recommended)

Click Here to Download

UptoBox

Click Here to Download

HugeFile

Click Here to Download

TurboBit

Click Here to Download

Uploaded

Click Here to Download

RapidGator

Click Here to Download
Share with Your Friends
Written by ED12