Share with Your Friends

Download Book Of Daniel 2013 BRRip AAC x264-SSDD
iMDB

Download Book Of Daniel 2013 BRRip AAC x264-SSDD

Plot

– In 605 B.C. Jerusalem was conquered by the Babylonnians and many of their best young men were taken into captivity, including Daniel. Daniel was taken to Babylon to serve it. As Powerful King , Nebuchandnezzar. Daniel as an example of boldness and faithfulness to God in the most difficult circumstances had eternal impact on the people and the kings that he encountered.

Information

General
Complete name : Book Of Daniel 2013 BRRip AAC x264-SSDD.mp4
Format : MPEG-4
Format profile : Base Media
Codec ID : isom
File size : 757 MiB
Duration : 1h 27mn
Overall bit rate mode : Variable
Overall bit rate : 1 205 Kbps

Video
ID : 1
Format : AVC
Format/Info : Advanced Video Codec
Format profile : Main@L4.1
Format settings, CABAC : Yes
Format settings, ReFrames : 4 frames
Codec ID : avc1
Codec ID/Info : Advanced Video Coding
Duration : 1h 27mn
Bit rate : 1 114 Kbps
Maximum bit rate : 4 950 Kbps
Width : 720 pixels
Height : 384 pixels
Display aspect ratio : 1.85:1
Frame rate mode : Constant
Frame rate : 23.976 fps
Color space : YUV
Chroma subsampling : 4:2:0
Bit depth : 8 bits
Scan type : Progressive
Bits/(Pixel*Frame) : 0.168
Stream size : 699 MiB (92%)
Writing library : x264 core 138 r2358 9e941d1

Audio
ID : 2
Format : AAC
Format/Info : Advanced Audio Codec
Format profile : LC
Codec ID : 40
Duration : 1h 27mn
Bit rate mode : Variable
Bit rate : 87.1 Kbps
Maximum bit rate : 116 Kbps
Channel count : 2 channels
Channel positions : Front: L R
Sampling rate : 48.0 KHz
Compression mode : Lossy
Stream size : 54.7 MiB (7%)

Download Book Of Daniel 2013 BRRip AAC x264-SSDD

Download Book Of Daniel 2013 BRRip AAC x264-SSDD

Terafile

Click Here to Download

Kingfiles

Click Here to Download

Uploaded.to,RapidGator,Extabit,Kingfiles,UMB

Click Here to Download

Putlocker

Click Here to Download
Share with Your Friends
Written by master