Share with Your Friends

Download Brick Mansions 2014 DVDRip x264 AC3-MiLLENiUM
iMDB

Download Brick Mansions 2014 DVDRip x264 AC3-MiLLENiUM

Plot

An undercover Detroit cop navigates a dangerous neighborhood that’s surrounded by a containment wall with the help of an ex-con in order to bring down a crime lord and his plot to devastate the entire city.

Information

General
Complete name : Brick Mansions 2014 DVDRip x264 AC3-MiLLENiUM.mkv
Format : Matroska
Format version : Version 2
File size : 1.33 GiB
Duration : 1h 30mn
Overall bit rate mode : Variable
Overall bit rate : 2 110 Kbps
Encoded date : UTC 2014-07-14 12:36:11
Writing application : mkvmerge v7.0.0 (‘Where We Going’) 32bit built on Jun 9 2014 >>
15:08:34
Writing library : libebml v1.3.0 + libmatroska v1.4.1

Video
ID : 1
Format : AVC
Format/Info : Advanced Video Codec
Format profile : High@L4.1
Format settings, CABAC : Yes
Format settings, ReFrames : 3 frames
Codec ID : V_MPEG4/ISO/AVC
Duration : 1h 30mn
Bit rate mode : Variable
Bit rate : 1 620 Kbps
Maximum bit rate : 40.0 Mbps
Width : 720 pixels
Height : 304 pixels
Display aspect ratio : 2.35:1
Frame rate mode : Constant
Frame rate : 23.976 fps
Color space : YUV
Chroma subsampling : 4:2:0
Bit depth : 8 bits
Scan type : Progressive
Bits/(Pixel*Frame) : 0.309
Stream size : 1.02 GiB (77%)
Writing library : x264 core 142 r2431 ac76440

Audio
ID : 2
Format : AC-3
Format/Info : Audio Coding 3
Mode extension : CM (complete main)
Format settings, Endianness : Big
Codec ID : A_AC3
Duration : 1h 30mn
Bit rate mode : Constant
Bit rate : 448 Kbps
Channel(s) : 6 channels
Channel positions : Front: L C R, Side: L R, LFE
Sampling rate : 48.0 KHz
Bit depth : 16 bits
Compression mode : Lossy
Stream size : 289 MiB (21%)
Language : English
Default : Yes
Forced : No

Download Brick Mansions 2014 DVDRip x264 AC3-MiLLENiUM

PutLocker (FireDrive)

Click Here to Download

Go4Up

Click Here to Download

Uploaded.to

Click Here to Download

RapidGator

Click Here to Download
Share with Your Friends
Written by ED12