Share with Your Friends

Download Captain Phillips 2013 720p WEBRip x264 AC3-MiLLENiUM
iMDB

Download Captain Phillips 2013 720p WEBRip x264 AC3-MiLLENiUM

Plot

The true story of Captain Richard Phillips and the 2009 hijacking by Somali pirates of the US-flagged MV Maersk Alabama, the first American cargo ship to be hijacked in two hundred years

Information

Format : Matroska
Format version : Version 2
File size : 2.83 GiB
Duration : 2h 13mn
Overall bit rate mode : Variable
Overall bit rate : 3 036 Kbps
Encoded date : UTC 2013-11-29 21:04:33
Writing application : mkvmerge v6.5.0 (‘Isn’t she lovely’) built on Oct 20 2013 12:50:05
Writing library : libebml v1.3.0 + libmatroska v1.4.1

Video
ID : 1
Format : AVC
Format/Info : Advanced Video Codec
Format profile : High@L4.1
Format settings, CABAC : Yes
Format settings, ReFrames : 3 frames
Codec ID : V_MPEG4/ISO/AVC
Duration : 2h 13mn
Bit rate mode : Variable
Bit rate : 2 591 Kbps
Maximum bit rate : 40.0 Mbps
Width : 1 280 pixels
Height : 720 pixels
Display aspect ratio : 16:9
Frame rate mode : Constant
Frame rate : 30.000 fps
Color space : YUV
Chroma subsampling : 4:2:0
Bit depth : 8 bits
Scan type : Progressive
Bits/(Pixel*Frame) : 0.094
Stream size : 2.42 GiB (85%)
Writing library : x264 core 140 r2377
Language : English
Default : Yes
Forced : No
Color primaries : BT.709
Transfer characteristics : BT.709
Matrix coefficients : BT.709

Audio
ID : 2
Format : AC-3
Format/Info : Audio Coding 3
Mode extension : CM (complete main)
Format settings, Endianness : Big
Codec ID : A_AC3
Duration : 2h 13mn
Bit rate mode : Constant
Bit rate : 384 Kbps
Channel(s) : 2 channels
Channel positions : Front: L R
Sampling rate : 48.0 KHz
Bit depth : 16 bits
Compression mode : Lossy
Delay relative to video : 6ms
Stream size : 367 MiB (13%)
Language : English
Default : Yes
Forced : No

Download Captain Phillips 2013 720p WEBRip x264 AC3-MiLLENiUM

Download Captain Phillips 2013 720p WEBRip x264 AC3-MiLLENiUM

Download Captain Phillips 2013 720p WEBRip x264 AC3-MiLLENiUM

Download Captain Phillips 2013 720p WEBRip x264 AC3-MiLLENiUM

Terafile


Click Here to Download


Click Here to Download

Kingfiles


Click Here to Download


Click Here to Download

Uploaded.to,RapidGator,Extabit,Kingfiles,UMB

Click Here to Download

Putlocker

Click Here to Download
Share with Your Friends
Written by master