Share with Your Friends

Download Cinderella 2015 HD-TS XVID AC3 HQ Hive-CM8
iMDB

Download Cinderella 2015 HD-TS XVID AC3 HQ Hive-CM8

When her father unexpectedly passes away, young Ella finds herself at the mercy of her cruel stepmother and her daughters. Never one to give up hope, Ella’s fortunes begin to change after meeting a dashing stranger.

Information

General
Format : AVI
Format/Info : Audio Video Interleave
File size : 1.44 GiB
Duration : 1h 45mn
Overall bit rate : 1 961 Kbps
Writing application : Nandub v1.0rc2
Writing library : Nandub build 1853/release

Video
ID : 0
Format : MPEG-4 Visual
Format profile : Advanced Simple L5
Format settings, BVOP : 2
Format settings, QPel : Yes
Format settings, GMC : No warppoints
Format settings, Matrix : Default (H.263)
Muxing mode : Packed bitstream
Codec ID : XVID
Codec ID/Hint : XviD
Duration : 1h 45mn
Bit rate : 1 696 Kbps
Width : 720 pixels
Height : 340 pixels
Display aspect ratio : 2.118
Frame rate : 23.976 fps
Color space : YUV
Chroma subsampling : 4:2:0
Bit depth : 8 bits
Scan type : Progressive
Compression mode : Lossy
Bits/(Pixel*Frame) : 0.289
Stream size : 1.25 GiB (86%)
Writing library : XviD 1.2.1 (UTC 2008-12-04)

Audio
ID : 1
Format : AC-3
Format/Info : Audio Coding 3
Mode extension : CM (complete main)
Format settings, Endianness : Big
Codec ID : 2000
Duration : 1h 45mn
Bit rate mode : Constant
Bit rate : 256 Kbps
Channel(s) : 2 channels
Channel positions : Front: L R
Sampling rate : 48.0 KHz
Bit depth : 16 bits
Compression mode : Lossy
Delay relative to video : 26ms
Stream size : 193 MiB (13%)
Alignment : Split accross interleaves
Interleave, duration : 42 ms (1.00 video frame)
Interleave, preload duration : 500 ms

Download Cinderella 2015 HD-TS XVID AC3 HQ Hive-CM8

Download Cinderella 2015 HD-TS XVID AC3 HQ Hive-CM8

Download Cinderella 2015 HD-TS XVID AC3 HQ Hive-CM8

Download Cinderella 2015 HD-TS XVID AC3 HQ Hive-CM8

Download Cinderella 2015 HD-TS XVID AC3 HQ Hive-CM8

Download Cinderella 2015 HD-TS XVID AC3 HQ Hive-CM8

Download Cinderella 2015 HD-TS XVID AC3 HQ Hive-CM8

Download Cinderella 2015 HD-TS XVID AC3 HQ Hive-CM8

Download Cinderella 2015 HD-TS XVID AC3 HQ Hive-CM8

ZippyShare

Click Here to Download

Click Here to Download


Click Here to Download


Click Here to Download

Uploaded

Click Here to Download

Click Here to Download


Click Here to Download


Click Here to Download

RapidGator

Click Here to Download

Click Here to Download


Click Here to Download


Click Here to Download
Share with Your Friends
Written by ED12