Share with Your Friends

Download Coherence 2013 720p HDRip x264 AC3-RARBG
iMDB

Download Coherence 2013 720p HDRip x264 AC3-RARBG

Plot

On the night of an astronomical anomaly, eight friends at a dinner party experience a troubling chain of reality bending events. Part cerebral sci-fi and part relationship drama, COHERENCE is a tightly focused, intimately shot film that quickly ratchets up with tension and mystery.

Information

Video
ID : 1
Format : AVC
Format/Info : Advanced Video Codec
Format profile : High@L4.0
Format settings, CABAC : Yes
Format settings, ReFrames : 9 frames
Codec ID : V_MPEG4/ISO/AVC
Duration : 1h 28mn
Bit rate : 2 217 Kbps
Width : 1 280 pixels
Height : 544 pixels
Display aspect ratio : 2.35:1
Frame rate mode : Constant
Frame rate : 23.976 fps
Color space : YUV
Chroma subsampling : 4:2:0
Bit depth : 8 bits
Scan type : Progressive
Bits/(Pixel*Frame) : 0.133
Stream size : 1.37 GiB (89%)
Title : Coherence.2013.720p.HDRip.x264.AC3-RARBG
Writing library : x264 core 129
Language : English
Default : Yes
Forced : No
Color primaries : BT.709
Transfer characteristics : BT.709
Matrix coefficients : BT.709

Audio
ID : 2
Format : AC-3
Format/Info : Audio Coding 3
Mode extension : CM (complete main)
Format settings, Endianness : Big
Codec ID : A_AC3
Duration : 1h 28mn
Bit rate mode : Constant
Bit rate : 224 Kbps
Channel(s) : 2 channels
Channel positions : Front: L R
Sampling rate : 48.0 KHz
Bit depth : 16 bits
Compression mode : Lossy
Stream size : 141 MiB (9%)
Title : Coherence.2013.720p.HDRip.x264.AC3-RARBG
Language : English
Default : Yes
Forced : No

Text
ID : 3
Format : UTF-8
Codec ID : S_TEXT/UTF8
Codec ID/Info : UTF-8 Plain Text
Title : English
Language : English
Default : Yes
Forced : No

Download Coherence 2013 720p HDRip x264 AC3-RARBG

Download Coherence 2013 720p HDRip x264 AC3-RARBG

Download Coherence 2013 720p HDRip x264 AC3-RARBG

Download Coherence 2013 720p HDRip x264 AC3-RARBG

HugeFile

Click Here to Download

Click Here to Download

180Upload

Click Here to Download

Click Here to Download

Sockshare

Click Here to Download

Click Here to Download

UploadRocket

Click Here to Download

Click Here to Download

TurboBit

Click Here to Download

Click Here to Download

Uploaded.to

Click Here to Download

Click Here to Download

RapidGator

Click Here to Download

Click Here to Download
Share with Your Friends
Written by ED12