Share with Your Friends

Download Come Back to Me 2014 720p WEBRip XviD MP3-RARBG

iMDB

Download Come Back to Me 2014 720p WEBRip XviD MP3-RARBG

Plot

Sarah & Josh are married suburbanites. After a car accident, Sarah suffers blackouts & ends up pregnant though Josh is sterile. As her life spirals she hides a camera in her home & unlocks a horrific secret with far-reaching consequences.
Information

Format : AVI
Format/Info : Audio Video Interleave
Format profile : OpenDML
File size : 2.28 GiB
Duration : 1h 33mn
Overall bit rate : 3 505 Kbps

Video
ID : 0
Format : MPEG-4 Visual
Format profile : Simple L5
Format settings, BVOP : No
Format settings, QPel : No
Format settings, GMC : No warppoints
Format settings, Matrix : Default (H.263)
Codec ID : XVID
Codec ID/Hint : XviD
Duration : 1h 33mn
Bit rate : 3 298 Kbps
Width : 1 280 pixels
Height : 538 pixels
Display aspect ratio : 2.25:1
Frame rate : 23.976 fps
Color space : YUV
Chroma subsampling : 4:2:0
Bit depth : 8 bits
Scan type : Progressive
Compression mode : Lossy
Bits/(Pixel*Frame) : 0.200
Stream size : 2.14 GiB (94%)
Writing library : Lavc56.34.100

Audio
ID : 1
Format : MPEG Audio
Format version : Version 1
Format profile : Layer 3
Mode : Joint stereo
Mode extension : MS Stereo
Codec ID : 55
Codec ID/Hint : MP3
Duration : 1h 32mn
Bit rate mode : Constant
Bit rate : 192 Kbps
Channel(s) : 2 channels
Sampling rate : 48.0 KHz
Compression mode : Lossy
Stream size : 127 MiB (5%)
Alignment : Aligned on interleaves
Interleave, duration : 24 ms (0.58 video frame)
Interleave, preload duration : 504 ms

Download Come Back to Me 2014 720p WEBRip XviD MP3-RARBG
Download Come Back to Me 2014 720p WEBRip XviD MP3-RARBG
Download Come Back to Me 2014 720p WEBRip XviD MP3-RARBG

Download Come Back to Me 2014 720p WEBRip XviD MP3-RARBG

UptoBox

Click Here to Download

Click Here to Download


Click Here to Download

HugeFile

Click Here to Download

Click Here to Download


Click Here to Download

TurboBit

Click Here to Download

Click Here to Download


Click Here to Download

Uploaded

Click Here to Download

Click Here to Download


Click Here to Download

RapidGator

Click Here to Download

Click Here to Download


Click Here to Download
Share with Your Friends
Written by ED12