Share with Your Friends

Download Death Factory (2014) BluRay 720p 650MB - YIFY
iMDB

Download Death Factory (2014) BluRay 720p 650MB – YIFY

Plot

A busload of strangers find themselves fighting for their lives when one of them reads from a gothic book and brings to life six dead serial killers who proceed to hunt them down one by one.

Information

General
Format : MPEG-4
Format profile : Base Media
Codec ID : isom
File size : 691 MiB
Duration : 1h 17mn
Overall bit rate mode : Variable
Overall bit rate : 1 251 Kbps

Video
ID : 1
Format : AVC
Format/Info : Advanced Video Codec
Format profile : High@L4.1
Format settings, CABAC : Yes
Format settings, ReFrames : 4 frames
Codec ID : avc1
Codec ID/Info : Advanced Video Coding
Duration : 1h 17mn
Bit rate : 1 153 Kbps
Maximum bit rate : 15.4 Mbps
Width : 1 280 pixels
Height : 720 pixels
Display aspect ratio : 16:9
Frame rate mode : Constant
Frame rate : 25.000 fps
Color space : YUV
Chroma subsampling : 4:2:0
Bit depth : 8 bits
Scan type : Progressive
Bits/(Pixel*Frame) : 0.050
Stream size : 637 MiB (92%)
Color primaries : BT.709
Matrix coefficients : BT.709
Color range : Limited

Audio
ID : 2
Format : AAC
Format/Info : Advanced Audio Codec
Format profile : LC
Codec ID : 40
Duration : 1h 17mn
Bit rate mode : Variable
Bit rate : 93.9 Kbps
Maximum bit rate : 99.6 Kbps
Channel(s) : 2 channels
Channel positions : Front: L R
Sampling rate : 48.0 KHz
Compression mode : Lossy
Stream size : 51.8 MiB (8%)
Language : English

Download Death Factory (2014) BluRay 720p 650MB - YIFY

Download Death Factory (2014) BluRay 720p 650MB - YIFY

Download Death Factory (2014) BluRay 720p 650MB - YIFY

Download Death Factory (2014) BluRay 720p 650MB - YIFY

Download Death Factory (2014) BluRay 720p 650MB – YIFY

200MB Links

ZippyShare

Click Here to Download

Click Here to Download


Click Here to Download


Click Here to Download

Single Links

24Uploading (Recommended)

Click Here to Download

HugeFile

Click Here to Download

TurboBit

Click Here to Download

Uploaded

Click Here to Download

RapidGator

Click Here to Download
Share with Your Friends
Written by ED12