Share with Your Friends

Download Deep Gold (2011) BluRay 1080p 1.2GB - YIFY
iMDB

Download Deep Gold (2011) BluRay 1080p 1.2GB – YIFY

Plot

Deep Gold follows Amy Sanchez, a champion free diver who, along with her sister Jess, find themselves thrown into the middle of a deadly conspiracy. After a government plane carrying a fortune in gold goes missing over Philippine waters, Amy and Jess struggle to investigate the disappearance with help from Lulu and the mysterious Benny Simpson. Soon, the girls learn they are in over their heads.

Information

General
Format : MPEG-4
Format profile : Base Media
Codec ID : isom
File size : 1.23 GiB
Duration : 1h 25mn
Overall bit rate mode : Variable
Overall bit rate : 2 070 Kbps

Video
ID : 1
Format : AVC
Format/Info : Advanced Video Codec
Format profile : High@L4.1
Format settings, CABAC : Yes
Format settings, ReFrames : 4 frames
Codec ID : avc1
Codec ID/Info : Advanced Video Coding
Duration : 1h 25mn
Bit rate : 1 974 Kbps
Maximum bit rate : 9 701 Kbps
Width : 1 920 pixels
Height : 1 080 pixels
Display aspect ratio : 16:9
Frame rate mode : Constant
Frame rate : 23.976 fps
Color space : YUV
Chroma subsampling : 4:2:0
Bit depth : 8 bits
Scan type : Progressive
Bits/(Pixel*Frame) : 0.040
Stream size : 1.17 GiB (95%)
Writing library : x264 core 123 r2189 35cf912
Color primaries : BT.709
Matrix coefficients : BT.709
Color range : Limited

Audio
ID : 2
Format : AAC
Format/Info : Advanced Audio Codec
Format profile : LC
Codec ID : 40
Duration : 1h 25mn
Bit rate mode : Variable
Bit rate : 93.7 Kbps
Maximum bit rate : 101 Kbps
Channel(s) : 2 channels
Channel positions : Front: L R
Sampling rate : 48.0 KHz
Compression mode : Lossy
Stream size : 57.2 MiB (5%)
Language : English

Download Deep Gold (2011) BluRay 1080p 1.2GB - YIFY

Download Deep Gold (2011) BluRay 1080p 1.2GB – YIFY

24Uploading (Recommended)

Click Here to Download

HugeFile

Click Here to Download

TurboBit

Click Here to Download

Uploaded

Click Here to Download

RapidGator

Click Here to Download
Share with Your Friends
Written by ED12