Share with Your Friends

Download Devil in My Ride 2013 720p WEBRIP x264 AC3-MiLLENiUM
iMDB

Download Devil in My Ride 2013 720p WEBRIP x264 AC3-MiLLENiUM

Plot

After Doreen has been possessed by the devil on her wedding night| her groom Hank| and her rebellious brother Travis| put aside their differences to travel across
country from Chicago to Las Vegas| in the hopes of finding a mythical street preacher who is said to be the last exorcist in America.

Information

Format : Matroska
Format version : Version 2
File size : 2.10 GiB
Duration : 1h 34mn
Overall bit rate : 3 174 Kbps
Encoded date : UTC 2014-05-13 11:42:06
Writing application : mkvmerge v6.5.0 (\’Isn\’t she lovely\’) built on Oct 20 2013 12:50:05
Writing library : libebml v1.3.0 + libmatroska v1.4.1

Video
ID : 1
Format : AVC
Format/Info : Advanced Video Codec
Format profile : High@L3.1
Format settings, CABAC : Yes
Format settings, ReFrames : 3 frames
Codec ID : V_MPEG4/ISO/AVC
Duration : 1h 34mn
Bit rate : 2 919 Kbps
Width : 1 280 pixels
Height : 720 pixels
Display aspect ratio : 16:9
Frame rate mode : Constant
Frame rate : 23.976 fps
Color space : YUV
Chroma subsampling : 4:2:0
Bit depth : 8 bits
Scan type : Progressive
Bits/(Pixel*Frame) : 0.132
Stream size : 1.93 GiB (92%)
Language : English
Default : Yes
Forced : No

Audio
ID : 2
Format : AC-3
Format/Info : Audio Coding 3
Mode extension : CM (complete main)
Format settings, Endianness : Big
Codec ID : A_AC3
Duration : 1h 34mn
Bit rate mode : Constant
Bit rate : 192 Kbps
Channel(s) : 2 channels
Channel positions : Front: L R
Sampling rate : 48.0 KHz
Bit depth : 16 bits
Compression mode : Lossy
Stream size : 130 MiB (6%)
Language : English
Default : Yes
Forced : No

Download Devil in My Ride 2013 720p WEBRIP x264 AC3-MiLLENiUM

Download Devil in My Ride 2013 720p WEBRIP x264 AC3-MiLLENiUM

Download Devil in My Ride 2013 720p WEBRIP x264 AC3-MiLLENiUM

Download Devil in My Ride 2013 720p WEBRIP x264 AC3-MiLLENiUM

Download Devil in My Ride 2013 720p WEBRIP x264 AC3-MiLLENiUM

HugeFile

Click Here to Download

Click Here to Download


Click Here to Download

MultiUpload

Click Here to Download

Click Here to Download


Click Here to Download

180Upload

Click Here to Download

Click Here to Download


Click Here to Download

Sockshare

Click Here to Download

Click Here to Download


Click Here to Download

TurboBit

Click Here to Download

Click Here to Download


Click Here to Download

Uploaded.to

Click Here to Download

Click Here to Download


Click Here to Download

RapidGator

Click Here to Download

Click Here to Download


Click Here to Download
Share with Your Friends
Written by ED12