Share with Your Friends

Download Doctor Who The Day of the Doctor 2013 BRRip XviD
iMDB

Download Doctor Who The Day of the Doctor 2013 BRRip XviD

Plot

In 2013, something terrible is awakening in London’s National Gallery; in 1562, a murderous plot is afoot in Elizabethan England; and somewhere in space an ancient battle reaches its devastating conclusion.

Information

Format : AVI
Format/Info : Audio Video Interleave
File size : 1.35 GiB
Duration : 1h 19mn
Overall bit rate : 2 413 Kbps
Writing application : VirtualDubMod 1.5.10.3 | Click Here to Download || (build 2550/release)
Writing library : VirtualDubMod build 2550/release
Video #0
ID : 0
Format : MPEG-4 Visual
Format profile : Advanced Simple@L5
Format settings, BVOP : 1
Format settings, QPel : No
Format settings, GMC : No warppoints
Format settings, Matrix : Default (H.263)
Codec ID : XVID
Codec ID/Hint : XviD
Duration : 1h 19mn
Bit rate : 1 956 Kbps
Width : 720 pixels
Height : 400 pixels
Display aspect ratio : 16:9
Frame rate : 23.976 fps
Color space : YUV
Chroma subsampling : 4:2:0
Bit depth : 8 bits
Scan type : Progressive
Compression mode : Lossy
Bits/(Pixel*Frame) : 0.283
Stream size : 1.09 GiB (81%)
Writing library : XviD 73
Audio #1
ID : 1
Format : AC-3
Format/Info : Audio Coding 3
Mode extension : CM (complete main)
Format settings, Endianness : Big
Codec ID : 2000
Duration : 1h 19mn
Bit rate mode : Constant
Bit rate : 448 Kbps
Channel(s) : 6 channels
Channel positions : Front: L C R, Side: L R, LFE
Sampling rate : 48.0 KHz
Bit depth : 16 bits
Compression mode : Lossy
Stream size : 256 MiB (19%)
Alignment : Split accross interleaves
Interleave, duration : 42 ms (1.00 video frame)

Download Doctor Who The Day of the Doctor 2013 BRRip XviD

Download Doctor Who The Day of the Doctor 2013 BRRip XviD

Ultramegabit,Kingfiles,RG,ExtaBit,UL,Billionupload

Click Here to Download
Share with Your Friends
Written by master