Share with Your Friends

Download Title
iMDB

Download Dracula Untold (2014) WEB-DL x264-RARBG

Plot

At the turn of the century| the young lord Vlad and his family live a peaceful life ruling over their small kingdom| but when a Turk warlord demands from Vlad a
thousand boys and his son to create an army Vlad seeks a terrible power that will allow him to protect his kingdom and family from the Turks at a terrible cost.

Information

[mediainfo]

Video
ID : 1
Format : AVC
Format/Info : Advanced Video Codec
Format settings, CABAC : Yes
Format settings, ReFrames : 5 frames
Codec ID : avc1
Codec ID/Info : Advanced Video Coding
Duration : 1h 32mn
Bit rate : 1 100 Kbps
Width : 720 pixels
Height : 304 pixels
Display aspect ratio : 2.40:1
Original display aspect ratio : 2.40:1
Frame rate mode : Constant
Frame rate : 23.976 fps
Color space : YUV
Chroma subsampling : 4:2:0
Bit depth : 8 bits
Scan type : Progressive
Bits/(Pixel*Frame) : 0.210
Stream size : 726 MiB (89%)
Writing library : x264
Language : English

Audio
ID : 2
Format : AAC
Format/Info : Advanced Audio Codec
Format profile : LC
Codec ID : 40
Duration : 1h 32mn
Bit rate mode : Constant
Bit rate : 128 Kbps
Channel(s) : 2 channels
Channel positions : Front: L R
Sampling rate : 44.1 KHz
Compression mode : Lossy
Stream size : 84.3 MiB (10%)
Language : English

Download Title

Download Title

Download Title

Download Dracula Untold (2014) WEB-DL x264-RARBG

24Uploading (Recommended)

Click Here to Download

ClicknUpload

Click Here to Download

UPLOADED

Click Here to Download

MEDiAFREE

Click Here to Download

Xfileload

Click Here to Download

HUGEFiLES

Click Here to Download
Share with Your Friends
Written by S H E R i F