Share with Your Friends

Download Dumb and Dumber To (2014) 720p HDRiP X265 393MB
iMDB

Download Dumb and Dumber To (2014) 720p HDRiP X265 393MB

Information

General
Complete name : Dumb and Dumber To (2014) 720p HDRiP X265 – HDC0OL – 393MB.mp4
Format : MPEG-4
File size : 393 MiB
Duration : 1h 48mn 15s 167ms
Overall BitRate : 508 Kbps
Encoded date : UTC 2014-12-22 22:41:51

Video

ID : 1
Format : HEVC
Format/Info : High Efficiency Video Coding
Format profile : Main@L3.1
Duration : 1h 48mn
Codec ID : hvc1
Bit rate : 433 Kbps
Width : 1 280 pixels
Height : 692 pixels
Display aspect ratio : 1.85:1
Frame rate : 24.000 fps
Frame rate mode : Constant
Stream size : 336 MiB (85%)

Audio

ID : 2
Format : MPEG Audio
Format profile : Layer 3
Codec ID : 6B
Duration : 1h 48mn 15s 137ms
Bit rate mode : Variable
Bit rate : 70.5 Kbps
Channel(s) : 2 channels
Sampling rate : 44.1 KHz
Compression mode : Lossy
Stream size : 54.6 MiB (14%)

*** IMPORTANT – READ BEFORE YOU DOWNLOAD ***
If you’re not familiar with my x265 releases, please download the sample before you download the whole thing. This is a new HQ codec, which brought stunning video quality but it probably won’t be played on your old smart TV or BluRay Player. Though I played it fine with MX player on my android device.

If you want to play it on your PC, you can easily use VLC, MPC-HC, GOM Player or any other modern media player. just be sure you got the latest version of them.
If you have no video and only the audio is playing, try to update your player or use another one. Installing LAV Filters may help.

This is nothing you can compare with x264 releases so Don’t let the size scare you. small sizes don’t always mean LOW QUALITIES. This is the best you can get in this size.
This is THE future!

Download Dumb and Dumber To (2014) 720p HDRiP X265 393MB

Download Dumb and Dumber To (2014) 720p HDRiP X265 393MB

Download Dumb and Dumber To (2014) 720p HDRiP X265 393MB

Download Dumb and Dumber To (2014) 720p HDRiP X265 393MB

8 FILEHOSTS

Click Here to Download

UPTOBOX

Click Here to Download
Share with Your Friends
Written by HDC0OL