Share with Your Friends

Download Title
iMDB

Download Dysmorphia 2014 DVDRip 390MB

Plot

Struggling siblings discover their dead uncle’s secret stash of lost horror films on videotape. The “tapes” feature demented solicitors, gruesome dares, parental murder, demonic technology, monstrous grapefruit and more. The siblings eagerly watch each of the shocking, bizarre, comedic and bloody horror films, but little do they realize that something very ghoulish and gruesome is about to happen to them

Information

Format : AVI
File size : 389 MiB
Duration : 1h 27mn

Video
Format : MPEG-4 Visual
Codec ID : XVID
Duration : 1h 27mn
Bit rate : 481 Kbps
Width : 576 pixels
Height : 328 pixels
Display aspect ratio : 16:9
Frame rate : 23.976 fps
Stream size : 301 MiB (77%)

Audio
Format : MPEG Audio
Codec ID/Hint : MP3
Duration : 1h 27mn
Bit rate mode : Constant
Bit rate : 128 Kbps
Channel(s) : 2 channels
Stream size : 80.2 MiB (21%)

Download Title

Download Title

Download Dysmorphia 2014 DVDRip 390MB

24Uploading (Recommended)

Click Here to Download

ClicknUpload

Click Here to Download

UPLOADED

Click Here to Download

MEDiAFREE

Click Here to Download
Share with Your Friends
Written by S H E R i F