Share with Your Friends

Elite Squad (2007) 720p Bluray 700 MB
iMDB

Elite Squad (2007) 720p Bluray 700 MB

Plot
1997, Captain Nascimento has to find a substitute for his occupation while trying to take down drug dealers and criminals before the Pope comes to Rio de Janeiro, Brazil.

Information
GENRE: Action | Crime | Drama
RATING: 8.1/10
STARS: Wagner Moura, Andre Ramiro, Caio Junqueira
Tropa de Elite [Elite Squad] 2007 720p Bluray anoXmous (Size: 699.51 MB)
Media Info
Format : MPEG-4
Format profile : Base Media
Codec ID : isom
File size : 699 MiB
Duration : 1h 54mn
Overall bit rate mode : Variable
Overall bit rate : 852 Kbps
Video
ID : 1
Format : AVC
Format/Info : Advanced Video Codec
Format settings, CABAC : Yes
Format settings, ReFrames : 4 frames
Codec ID : avc1
Codec ID/Info : Advanced Video Coding
Duration : 1h 54mn
Bit rate : 783 Kbps
Maximum bit rate : 3 851 Kbps
Width : 1 280 pixels
Height : 692 pixels
Display aspect ratio : 1.850
Frame rate mode : Constant
Frame rate : 23.976 fps
Color space : YUV
Chroma subsampling : 4:2:0
Bit depth : 8 bits
Scan type : Progressive
Bits/(Pixel*Frame) : 0.037
Stream size : 642 MiB (92%)
Writing library : x264 core 120 r2120 0c7dab9
Audio
ID : 2
Format : AAC
Format/Info : Advanced Audio Codec
Format profile : LC
Codec ID : 40
Duration : 1h 54mn
Bit rate mode : Variable
Bit rate : 66.2 Kbps
Maximum bit rate : 95.3 Kbps
Channel(s) : 2 channels
Channel positions : Front: L R
Sampling rate : 48.0 KHz
Compression mode : Lossy
Stream size : 55.0 MiB (8%)
SUB :
Tropa.de.Elite.Elite.Squad.2007.720p.Bluray.x264.anoXmous_eng.srt

Elite Squad (2007) 720p Bluray 700 MB
Elite Squad (2007) 720p Bluray 700 MB
Elite Squad (2007) 720p Bluray 700 MB
Elite Squad (2007) 720p Bluray 700 MB

Elite Squad (2007) 720p Bluray 700 MB

Rapidgator

Click Here to Download

24uploading

Click Here to Download

LenFile

Click Here to Download

Mediafree

Click Here to Download

HugeFile

Click Here to Download

BillionUploads

Click Here to Download

180upload

Click Here to Download

Uptobox

Click Here to Download
Share with Your Friends
Written by skull_6682