Share with Your Friends

Elysium 2013 720p WEB-DL x264 AC3-VAiN
iMDB

Elysium 2013 720p WEB-DL x264 AC3-VAiN

Plot

In the year 2154, the very wealthy live on a man-made space station while the rest of the population resides on a ruined Earth.
A man takes on a mission that could bring equality to the polarized worlds.

Information

VAiN . P R E S E N T S . . .

Elysium.2013.720p.WEB-DL.x264.AC3-VAiN

info

iMDB……..: http://www.imdb.com/title/tt1535108/

T E C H N i C A L . i N F O . . .
Format : Matroska
Format version : Version 2
File size : 2.59 GiB
Duration : 1h 49mn
Overall bit rate : 3 383 Kbps
Encoded date : UTC 2013-11-12 02:51:32
Writing application : mkvmerge v5.8.0 (‘No Sleep / Pillow’) built on Sep 2 2012 15:37:04
Writing library : libebml v1.2.3 + libmatroska v1.3.0

Video
ID : 1
Format : AVC
Format/Info : Advanced Video Codec
Format profile : High@L3.1
Format settings, CABAC : Yes
Format settings, ReFrames : 4 frames
Muxing mode : Header stripping
Codec ID : V_MPEG4/ISO/AVC
Duration : 1h 49mn
Bit rate : 2 999 Kbps
Width : 1 280 pixels
Height : 496 pixels
Display aspect ratio : 2.581
Frame rate mode : Constant
Frame rate : 23.976 fps
Color space : YUV
Chroma subsampling : 4:2:0
Bit depth : 8 bits
Scan type : Progressive
Bits/(Pixel*Frame) : 0.197
Stream size : 2.24 GiB (87%)
Writing library : x264 core 133 r2334 a3ac64b

Audio
ID : 2
Format : AC-3
Format/Info : Audio Coding 3
Mode extension : CM (complete main)
Format settings, Endianness : Big
Muxing mode : Header stripping
Codec ID : A_AC3
Duration : 1h 49mn
Bit rate mode : Constant
Bit rate : 384 Kbps
Channel(s) : 2 channels
Channel positions : Front: L R
Sampling rate : 48.0 KHz
Bit depth : 16 bits
Compression mode : Lossy
Stream size : 301 MiB (11%)
Default : Yes
Forced : No

Elysium 2013 720p WEB-DL x264 AC3-VAiN

Elysium 2013 720p WEB-DL x264 AC3-VAiN

Elysium 2013 720p WEB-DL x264 AC3-VAiN

Elysium 2013 720p WEB-DL x264 AC3-VAiN

RapidGator

Click Here to Download

Click Here to Download


Click Here to Download

Uploaded.to

Click Here to Download

Click Here to Download


Click Here to Download

KingFiles

Click Here to Download

Click Here to Download


Click Here to Download

BillionUploads

Click Here to Download

Click Here to Download


Click Here to Download

PutLocker

Click Here to Download

Click Here to Download


Click Here to Download
Share with Your Friends
Written by DaaD