Share with Your Friends

Download Elysium (2013) Uncut Cam 400MB
iMDB

Download Elysium (2013) Uncut Cam AAC x264-400MB

Plot

In the year 2154 two classes of people exist: the very wealthy who live on a pristine man-made space station called Elysium, and the rest, who live on an overpopulated, ruined Earth. Secretary Rhodes, a government official, will stop at nothing to enforce anti-immigration laws and preserve the luxurious lifestyle of the citizens of Elysium. That doesn’t stop the people of Earth from trying to get in, by any means they can. When unlucky Max is backed into a corner, he agrees to take on a daunting mission that if successful will not only save his life, but could bring equality to these polarized worlds

Information

General
Complete name: Elysium 2013 Uncut Cam AAC x264-SSDD.mp4
Format: MPEG-4
Format profile: Base Media
Codec ID: isom
File size: 400 MiB
Duration: 1h 40mn
Overall bit rate mode: Variable
Overall bit rate: 555 Kbps

Video
ID: 1
Format: AVC
Format/Info: Advanced Video Codec
Format profile: Main@L3.0
Format settings, CABAC: Yes
Format settings, ReFrames: 4 frames
Codec ID: avc1
Codec ID/Info: Advanced Video Coding
Duration: 1h 40mn
Bit rate: 516 Kbps
Maximum bit rate: 2 562 Kbps
Width: 720 pixels
Height: 266 pixels
Display aspect ratio: 2.707
Frame rate mode: Constant
Frame rate: 29.970 fps
Color space: YUV
Chroma subsampling: 4:2:0
Bit depth: 8 bits
Scan type: Progressive
Bits/(Pixel*Frame): 0.090
Stream size: 372 MiB (93%)
Writing library: x264 core 133 r2334 a3ac64b

Audio
ID: 2
Format: AAC
Format/Info: Advanced Audio Codec
Format profile: LC
Codec ID: 40
Duration: 1h 40mn
Bit rate mode: Variable
Bit rate: 35.0 Kbps
Maximum bit rate: 41.3 Kbps
Channel(s): 2 channels
Channel positions: Front: L R
Sampling rate: 48.0 KHz
Compression mode: Lossy
Stream size: 25.2 MiB (6%)

Download Elysium (2013) Uncut Cam 400MB

Download Elysium (2013) Uncut Cam 400MB

Download Elysium (2013) Uncut Cam 400MB

Download Elysium (2013) Uncut Cam 400MB

Download Elysium (2013) Uncut Cam 400MB

Uploaded.to,RapidGator,Extabit,HUgefiles,UMB

Click Here to Download

Putlocker

Click Here to Download
Share with Your Friends
Written by master