Share with Your Friends

Download Empire of the Nightwalker 2012 UNCUT BRRip x264 AC3 - 750MB
iMDB

Download Empire of the Nightwalker 2012 UNCUT BRRip x264 AC3 – 750MB

Plot

As a wave of vampirism sweeps the world, a small but discordant group hole up in a country mansion in Victoria…

Information

General
Complete name : Empire of the Nightwalker 2012 UNCUT BRRip x264 AC3-MiLLENiUM.mkv
Format : Matroska
Format version : Version 2
File size : 764 MiB
Duration : 1h 36mn
Overall bit rate mode : Variable
Overall bit rate : 1 107 Kbps
Encoded date : UTC 2014-03-19 11:37:04
Writing application : mkvmerge v6.8.0 (‘Theme for Great Cities’) 32bit built on Mar 2 2014 21:27:07
Writing library : libebml v1.3.0 + libmatroska v1.4.1

Video
ID : 1
Format : AVC
Format/Info : Advanced Video Codec
Format profile : High@L4.1
Format settings, CABAC : Yes
Format settings, ReFrames : 3 frames
Codec ID : V_MPEG4/ISO/AVC
Duration : 1h 36mn
Bit rate mode : Variable
Bit rate : 637 Kbps
Maximum bit rate : 40.0 Mbps
Width : 720 pixels
Height : 304 pixels
Display aspect ratio : 2.35:1
Frame rate mode : Constant
Frame rate : 25.000 fps
Color space : YUV
Chroma subsampling : 4:2:0
Bit depth : 8 bits
Scan type : Progressive
Bits/(Pixel*Frame) : 0.116
Stream size : 440 MiB (58%)
Writing library : x264 core 142 r2409 d6b4e63

Audio
ID : 2
Format : AC-3
Format/Info : Audio Coding 3
Mode extension : CM (complete main)
Format settings, Endianness : Big
Codec ID : A_AC3
Duration : 1h 36mn
Bit rate mode : Constant
Bit rate : 448 Kbps
Channel(s) : 6 channels
Channel positions : Front: L C R, Side: L R, LFE
Sampling rate : 48.0 KHz
Bit depth : 16 bits
Compression mode : Lossy
Stream size : 309 MiB (40%)
Language : English
Default : Yes
Forced : No

Download Empire of the Nightwalker 2012 UNCUT BRRip x264 AC3 - 750MB

Download Empire of the Nightwalker 2012 UNCUT BRRip x264 AC3 - 750MB

Download Empire of the Nightwalker 2012 UNCUT BRRip x264 AC3 - 750MB

Download Empire of the Nightwalker 2012 UNCUT BRRip x264 AC3 - 750MB

Download Empire of the Nightwalker 2012 UNCUT BRRip x264 AC3 – 750MB

FireDrive,Sockshare(Putlocker),180Upload,BillionUpload,MightyUpload+5

Click Here to Download

BinBox Pass If Asked :

KqQeW8gu
Share with Your Friends
Written by master