Share with Your Friends

Download Endless Love 2014 HDRIP x264 AC3-TiTAN
iMDB

Download Endless Love 2014 HDRIP x264 AC3-TiTAN

Plot

The story of a privileged girl and a charismatic boy whose instant desire sparks a love affair made only more reckless by parents trying to keep them apart.

Information

General
Format : Matroska
Format version : Version 2
File size : 1.22 GiB
Duration : 1h 44mn
Overall bit rate mode : Variable
Overall bit rate : 1 677 Kbps
Encoded date : UTC 2014-05-13 07:35:38
Writing application : mkvmerge v6.9.1 (‘Blue Panther’) 32bit built on Apr 18 2014 >>
18:15:44
Writing library : libebml v1.3.0 + libmatroska v1.4.1

Video
ID : 1
Format : AVC
Format/Info : Advanced Video Codec
Format profile : High@L4.1
Format settings, CABAC : Yes
Format settings, ReFrames : 3 frames
Codec ID : V_MPEG4/ISO/AVC
Duration : 1h 44mn
Bit rate mode : Variable
Bit rate : 1 259 Kbps
Maximum bit rate : 40.0 Mbps
Width : 720 pixels
Height : 304 pixels
Display aspect ratio : 2.35:1
Frame rate mode : Constant
Frame rate : 23.976 fps
Color space : YUV
Chroma subsampling : 4:2:0
Bit depth : 8 bits
Scan type : Progressive
Bits/(Pixel*Frame) : 0.240
Stream size : 942 MiB (75%)
Writing library : x264 core 142 r2409 d6b4e63
Default : Yes
Forced : No
Color primaries : BT.709
Transfer characteristics : BT.709
Matrix coefficients : BT.709

Audio
ID : 2
Format : AC-3
Format/Info : Audio Coding 3
Mode extension : CM (complete main)
Format settings, Endianness : Big
Codec ID : A_AC3
Duration : 1h 44mn
Bit rate mode : Constant
Bit rate : 384 Kbps
Channel(s) : 6 channels
Channel positions : Front: L C R, Side: L R, LFE
Sampling rate : 48.0 KHz
Bit depth : 16 bits
Compression mode : Lossy
Stream size : 287 MiB (23%)
Language : English
Default : Yes
Forced : No

Download Endless Love 2014 HDRIP x264 AC3-TiTAN

Download Endless Love 2014 HDRIP x264 AC3-TiTAN

Download Endless Love 2014 HDRIP x264 AC3-TiTAN

Download Endless Love 2014 HDRIP x264 AC3-TiTAN

Download Endless Love 2014 HDRIP x264 AC3-TiTAN

MultiUpload

Click Here to Download

PutLocker (FireDrive)

Click Here to Download

Uploaded.to

Click Here to Download

RapidGator

Click Here to Download
Share with Your Friends
Written by ED12