Share with Your Friends

Download Escape Plan 2013 NEW-HDCAM UNCROPPED AAC MURDER
iMDB

Download Escape Plan 2013 NEW-HDCAM UNCROPPED AAC MURDER

Plot

When a structural-security authority finds himself set up and incarcerated in the world’s most secret and secure prison, he has to use his skills to escape with help from the inside.

Information

SOURCE : SMY…………..

Format : AVI
Format/Info : Audio Video Interleave
File size : 1.38 GiB
Overall bit rate : 5 397 bps

Video
ID : 0
Format : AVC
Format/Info : Advanced Video Codec
Format profile : High@L3.0
Format settings, CABAC : Yes
Format settings, ReFrames : 4 frames
Codec ID : H264
Duration : 1h 46mn
Bit rate : 1 700 Kbps
Width : 720 pixels
Height : 404 pixels
Display aspect ratio : 16:9
Frame rate : 29.970 fps
Color space : YUV
Chroma subsampling : 4:2:0
Bit depth : 8 bits
Scan type : Progressive
Bits/(Pixel*Frame) : 0.195
Stream size : 1.27 GiB (92%)
Writing library : x264 core

Audio
ID : 1
Format : AAC
Format/Info : Advanced Audio Codec
Format profile : LC
Codec ID : FF
Source duration : 1h 46mn
Bit rate : 128 Kbps
Channel count : 2 channels
Channel positions : Front: L R
Sampling rate : 48.0 KHz
Compression mode : Lossy
Stream size : 97.9 MiB (7%)
Alignment : Split accross interleaves
Interleave, duration : 21 ms (0.64 video frame)

Download Escape Plan 2013 NEW-HDCAM UNCROPPED AAC MURDER

Download Escape Plan 2013 NEW-HDCAM UNCROPPED AAC MURDER

Uploaded

Click Here to Download

Kingfiles

Click Here to Download

RG

Click Here to Download

Extabit

Click Here to Download

Putlocker

Click Here to Download
Share with Your Friends
Written by master