Share with Your Friends

Download Escape Plan 2013 NEW SOURCE V2 R6 XVID
iMDB

Download Escape Plan 2013 NEW SOURCE V2 R6 XVID

Information

Format : AVI
Format/Info : Audio Video Interleave
File size : 1.04 GiB
Duration : 1h 47mn
Overall bit rate : 1 381 Kbps
Writing library : VirtualDub build 30091/release

Video
ID : 0
Format : MPEG-4 Visual
Format profile : Advanced Simple@L5
Format settings, BVOP : 2
Format settings, QPel : No
Format settings, GMC : No warppoints
Format settings, Matrix : Default (H.263)
Muxing mode : Packed bitstream
Codec ID : XVID
Codec ID/Hint : XviD
Duration : 1h 47mn
Bit rate : 1 243 Kbps
Width : 640 pixels
Height : 272 pixels
Display aspect ratio : 2.35:1
Frame rate : 23.976 fps
Color space : YUV
Chroma subsampling : 4:2:0
Bit depth : 8 bits
Scan type : Progressive
Compression mode : Lossy
Bits/(Pixel*Frame) : 0.298
Stream size : 958 MiB (90%)
Writing library : XviD 1.2.1 (UTC 2008-12-04)

Audio
ID : 1
Format : AC-3
Format/Info : Audio Coding 3
Mode extension : CM (complete main)
Format settings, Endianness : Big
Codec ID : 2000
Duration : 1h 47mn
Bit rate mode : Constant
Bit rate : 128 Kbps
Channel count : 2 channels
Channel positions : Front: L R
Sampling rate : 48.0 KHz
Bit depth : 16 bits
Compression mode : Lossy
Stream size : 98.6 MiB (9%)

Download Escape Plan 2013 NEW SOURCE V2 R6 XVID

Download Escape Plan 2013 NEW SOURCE V2 R6 XVID

Download Escape Plan 2013 NEW SOURCE V2 R6 XVID

Download Escape Plan 2013 NEW SOURCE V2 R6 XVID

Download Escape Plan 2013 NEW SOURCE V2 R6 XVID

Ultramegabit,Kingfiles,RG,ExtaBit,UL,Putlocker

Click Here to Download
Share with Your Friends
Written by master