Share with Your Friends

Download Fifty Shades of Grey 2015 720p UNCUT WEB-DL XviD MP3-RARBG
iMDB

Download Fifty Shades of Grey 2015 720p UNCUT WEB-DL XviD MP3-RARBG

Plot

Literature student Anastasia Steele’s life changes forever when she meets handsome, yet tormented, billionaire Christian Grey.

Information

Format : AVI
Format/Info : Audio Video Interleave
Format profile : OpenDML
File size : 2.74 GiB
Duration : 2h 5mn
Overall bit rate : 3 131 Kbps

Video
ID : 0
Format : MPEG-4 Visual
Format profile : Simple L5
Format settings, BVOP : No
Format settings, QPel : No
Format settings, GMC : No warppoints
Format settings, Matrix : Default (H.263)
Codec ID : XVID
Codec ID/Hint : XviD
Duration : 2h 5mn
Bit rate : 2 925 Kbps
Width : 1 280 pixels
Height : 532 pixels
Display aspect ratio : 2.40:1
Frame rate : 23.976 fps
Color space : YUV
Chroma subsampling : 4:2:0
Bit depth : 8 bits
Scan type : Progressive
Compression mode : Lossy
Bits/(Pixel*Frame) : 0.179
Stream size : 2.56 GiB (93%)
Writing library : Lavc56.13.100

Audio
ID : 1
Format : MPEG Audio
Format version : Version 1
Format profile : Layer 3
Mode : Joint stereo
Codec ID : 55
Codec ID/Hint : MP3
Duration : 2h 5mn
Bit rate mode : Constant
Bit rate : 192 Kbps
Channel(s) : 2 channels
Sampling rate : 48.0 KHz
Compression mode : Lossy
Stream size : 172 MiB (6%)
Alignment : Aligned on interleaves
Interleave, duration : 24 ms (0.58 video frame)
Interleave, preload duration : 504 ms
Writing library : LAME3.99.5

Download Fifty Shades of Grey 2015 720p UNCUT WEB-DL XviD MP3-RARBG

Download Fifty Shades of Grey 2015 720p UNCUT WEB-DL XviD MP3-RARBG

Download Fifty Shades of Grey 2015 720p UNCUT WEB-DL XviD MP3-RARBG

24Uploading (Recommended)

Click Here to Download

Click Here to Download


Click Here to Download


Click Here to Download

Uploaded

Click Here to Download

Click Here to Download


Click Here to Download


Click Here to Download

RapidGator

Click Here to Download

Click Here to Download


Click Here to Download


Click Here to Download
Share with Your Friends
Written by ED12