Share with Your Friends

Download Title
iMDB

Download Fifty Shades of Grey 2015 UNCUT HC HDRIP 1.5GB

Plot

Literature student Anastasia Steele’s life changes forever when she meets handsome, yet tormented, billionaire Christian Grey.

Information

General

Format : Matroska
Format version : Version 2
File size : 1.48 GiB
Duration : 2h 5mn
Overall bit rate : 1 693 Kbps

Video
ID : 1
Format : AVC
Format/Info : Advanced Video Codec
Format settings, CABAC : Yes
Format settings, ReFrames : 9 frames
Codec ID : V_MPEG4/ISO/AVC
Duration : 2h 5mn
Bit rate : 1 500 Kbps
Width : 720 pixels
Height : 300 pixels
Display aspect ratio : 2.40:1
Frame rate mode : Constant
Frame rate : 25.000 fps
Color space : YUV
Chroma subsampling : 4:2:0
Bit depth : 8 bits
Scan type : Progressive
Bits/(Pixel*Frame) : 0.278
Stream size : 1.28 GiB (87%)

Audio
ID : 2
Format : AC-3
Format/Info : Audio Coding 3
Mode extension : CM (complete main)
Format settings, Endianness : Big
Codec ID : A_AC3
Duration : 2h 5mn
Bit rate mode : Constant
Bit rate : 192 Kbps
Channel(s) : 2 channels
Channel positions : Front: L R
Sampling rate : 48.0 KHz
Bit depth : 16 bits
Compression mode : Lossy
Stream size : 172 MiB (11%)

Download Title

Download Fifty Shades of Grey 2015 UNCUT HC HDRIP 1.5GB


24Uploading


Click Here to Download


Rapidu


Click Here to Download
Share with Your Friends
Written by Suushenron1