Share with Your Friends

Download Fifty Shades of Grey 2015 UNCUT WEB-DL x264-RARBG
iMDB

Download Fifty Shades of Grey 2015 UNCUT WEB-DL x264-RARBG

Plot

Literature student Anastasia Steele’s life changes forever when she meets handsome, yet tormented, billionaire Christian Grey.

Information

Video
ID : 1
Format : AVC
Format/Info : Advanced Video Codec
Format profile : High L3.1
Format settings, CABAC : Yes
Format settings, ReFrames : 5 frames
Codec ID : avc1
Codec ID/Info : Advanced Video Coding
Duration : 2h 5mn
Bit rate : 1 100 Kbps
Width : 720 pixels
Height : 304 pixels
Display aspect ratio : 2.40:1
Original display aspect ratio : 2.40:1
Frame rate mode : Constant
Frame rate : 23.976 fps
Color space : YUV
Chroma subsampling : 4:2:0
Bit depth : 8 bits
Scan type : Progressive
Bits/(Pixel*Frame) : 0.210
Stream size : 976 MiB (89%)

Audio
ID : 2
Format : AAC
Format/Info : Advanced Audio Codec
Format profile : LC
Codec ID : 40
Duration : 2h 5mn
Bit rate mode : Constant
Bit rate : 128 Kbps
Channel(s) : 2 channels
Channel positions : Front: L R
Sampling rate : 48.0 KHz
Compression mode : Lossy
Stream size : 115 MiB (10%)
Language : English

Download Fifty Shades of Grey 2015 UNCUT WEB-DL x264-RARBG

Download Fifty Shades of Grey 2015 UNCUT WEB-DL x264-RARBG

24Uploading (Recommended)

Click Here to Download

Uploaded

Click Here to Download

RapidGator

Click Here to Download
Share with Your Friends
Written by ED12