Share with Your Friends

Download Flutter 2014 HDRip XviD AC3-RARBG
iMDB

Download Flutter 2014 HDRip XviD AC3-RARBG

Plot

With her husband away indefinitely, a young mother struggles to nurture her son in the face of poverty, isolation and incarceration. FLUTTER explores the truest love on earth-the love of a mother and child.

Information

Format : AVI
Format/Info : Audio Video Interleave
File size : 1.34 GiB
Duration : 1h 36mn
Overall bit rate : 1 991 Kbps

Video
ID : 0
Format : MPEG-4 Visual
Format profile : Simple@L5
Format settings, BVOP : No
Format settings, QPel : No
Format settings, GMC : No warppoints
Format settings, Matrix : Default (H.263)
Codec ID : XVID
Codec ID/Hint : XviD
Duration : 1h 36mn
Bit rate : 1 598 Kbps
Width : 720 pixels
Height : 368 pixels
Display aspect ratio : 1.957
Frame rate : 23.976 fps
Color space : YUV
Chroma subsampling : 4:2:0
Bit depth : 8 bits
Scan type : Progressive
Compression mode : Lossy
Bits/(Pixel*Frame) : 0.252
Stream size : 1.08 GiB (80%)
Writing library : Lavc56.20.100

Audio
ID : 1
Format : AC-3
Format/Info : Audio Coding 3
Mode extension : CM (complete main)
Format settings, Endianness : Big
Codec ID : 2000
Duration : 1h 36mn
Bit rate mode : Constant
Bit rate : 384 Kbps
Channel(s) : 6 channels
Channel positions : Front: L C R, Side: L R, LFE
Sampling rate : 48.0 KHz
Bit depth : 16 bits
Compression mode : Lossy
Stream size : 265 MiB (19%)
Alignment : Aligned on interleaves
Interleave, duration : 42 ms (1.00 video frame)
Interleave, preload duration : 512 ms

Download Flutter 2014 HDRip XviD AC3-RARBG

Download Flutter 2014 HDRip XviD AC3-RARBG

Download Flutter 2014 HDRip XviD AC3-RARBG

24Uploading (Recommended)

Click Here to Download

Uploaded

Click Here to Download

RapidGator

Click Here to Download
Share with Your Friends
Written by ED12