Share with Your Friends

Download Frozen (2013) CAM V2 AC3 MURDER
iMDB

Download Frozen (2013) CAM V2 AC3 MURDER

Plot

Fearless optimist Anna teams up with Kristoff in an epic journey, encountering Everest-like conditions, and a hilarious snowman named Olaf in a race to find Anna’s sister Elsa, whose icy powers have trapped the kingdom in eternal winter.

Information

Format : MPEG-4
Format profile : Base Media
Codec ID : isom
File size : 1.09 GiB
Duration : 1h 32mn
Overall bit rate : 1 681 Kbps
Encoded date : UTC 2013-12-03 22:36:29
Tagged date : UTC 2013-12-03 22:36:29
Writing application : Lavf55.19.100

Video
ID : 1
Format : AVC
Format/Info : Advanced Video Codec
Format profile : Main@L5.2
Format settings, CABAC : Yes
Format settings, ReFrames : 4 frames
Codec ID : avc1
Codec ID/Info : Advanced Video Coding
Duration : 1h 32mn
Duration_FirstFrame : -33ms
Bit rate : 1 500 Kbps
Width : 720 pixels
Height : 304 pixels
Display aspect ratio : 2.2:1
Frame rate mode : Variable
Frame rate : 29.970 fps
Minimum frame rate : 29.970 fps
Maximum frame rate : 30.030 fps
Color space : YUV
Chroma subsampling : 4:2:0
Bit depth : 8 bits
Scan type : Progressive
Bits/(Pixel*Frame) : 0.229
Stream size : 1 003 MiB (90%)
Writing library : x264 core
Encoded date : UTC 2013-12-03 22:36:29
Tagged date : UTC 2013-12-03 22:36:29

Audio
ID : 2
Format : AC-3
Format/Info : Audio Coding 3
Mode extension : CM (complete main)
Format settings, Endianness : Big
Codec ID : ac-3
Duration : 1h 32mn
Bit rate mode : Constant
Bit rate : 160 Kbps
Channel count : 2 channels
Channel positions : Front: L R
Sampling rate : 48.0 KHz
Bit depth : 16 bits
Compression mode : Lossy
Stream size : 106 MiB (10%)
Language : English

Download Frozen (2013) CAM V2 AC3 MURDER

Download Frozen (2013) CAM V2 AC3 MURDER

Extabit

Click Here to Download

RapidGator

Click Here to Download

Uploaded

Click Here to Download

Kingfiles

Click Here to Download

Putlocker

Click Here to Download
Share with Your Friends
Written by master