Share with Your Friends

Download Frozen Fever (2015) 480p WEB-DL 20MB
iMDB

Download Frozen Fever (2015) 480p WEB-DL 20MB

Plot

On Anna’s birthday, Elsa and Kristoff are determined to give her the best celebration ever, but Elsa’s icy powers may put more than just the party at risk.

Information

General
Format : MPEG-4
Format profile : Base Media / Version 2
Codec ID : mp42
File size : 22.7 MiB
Duration : 7mn 16s
Overall bit rate mode : Variable
Overall bit rate : 435 Kbps

Video
ID : 1
Format : AVC
Format/Info : Advanced Video Codec
Format profile : Baseline@L3.0
Format settings, CABAC : No
Format settings, ReFrames : 1 frame
Format settings, GOP : M=1, N=60
Codec ID : avc1
Codec ID/Info : Advanced Video Coding
Duration : 7mn 16s
Bit rate : 337 Kbps
Maximum bit rate : 833 Kbps
Width : 584 pixels
Height : 328 pixels
Display aspect ratio : 16:9
Frame rate mode : Constant
Frame rate : 29.970 fps
Color space : YUV
Chroma subsampling : 4:2:0
Bit depth : 8 bits
Scan type : Progressive
Bits/(Pixel*Frame) : 0.059
Stream size : 17.5 MiB (77%)
Tagged date : UTC 2015-03-16 02:04:17

Audio
ID : 2
Format : AAC
Format/Info : Advanced Audio Codec
Format profile : LC
Codec ID : 40
Duration : 7mn 16s
Bit rate mode : Variable
Bit rate : 96.0 Kbps
Maximum bit rate : 103 Kbps
Channel(s) : 2 channels
Channel positions : Front: L R
Sampling rate : 44.1 KHz
Compression mode : Lossy
Stream size : 5.00 MiB (22%)

Download Frozen Fever (2015) 480p WEB-DL 20MB

Download Frozen Fever (2015) 480p WEB-DL 20MB

24Uploading (Recommended)

Click Here to Download

HugeFile

Click Here to Download

TurboBit

Click Here to Download

Uploaded

Click Here to Download

RapidGator

Click Here to Download
Share with Your Friends
Written by ED12