Share with Your Friends

Download Furious 7 2015 CAM x264-RARBG
iMDB

Download Furious 7 2015 CAM x264-RARBG

Plot

Deckard Shaw seeks revenge against Dominic Toretto and his family for the death of his brother.

Information

Video
ID : 1
Format : AVC
Format/Info : Advanced Video Codec
Format profile : High L4.1
Format settings, CABAC : Yes
Format settings, ReFrames : 4 frames
Codec ID : avc1
Codec ID/Info : Advanced Video Coding
Duration : 2h 6mn
Bit rate : 2 000 Kbps
Width : 720 pixels
Height : 336 pixels
Display aspect ratio : 2.143
Frame rate mode : Constant
Frame rate : 25.000 fps
Color space : YUV
Chroma subsampling : 4:2:0
Bit depth : 8 bits
Scan type : Progressive
Bits/(Pixel*Frame) : 0.331
Stream size : 1.77 GiB (94%)

Audio
ID : 2
Format : AAC
Format/Info : Advanced Audio Codec
Format profile : LC
Codec ID : 40
Duration : 2h 6mn
Duration_LastFrame : 46ms
Bit rate mode : Constant
Bit rate : 128 Kbps
Channel(s) : 2 channels
Channel positions : Front: L R
Sampling rate : 44.1 KHz
Compression mode : Lossy
Stream size : 116 MiB (6%)

Download Furious 7 2015 CAM x264-RARBG

Download Furious 7 2015 CAM x264-RARBG

Download Furious 7 2015 CAM x264-RARBG

Download Furious 7 2015 CAM x264-RARBG

Download Furious 7 2015 CAM x264-RARBG

Download Furious 7 2015 CAM x264-RARBG

Download Furious 7 2015 CAM x264-RARBG

200MB Links

ZippyShare

Click Here to Download

Click Here to Download


Click Here to Download


Click Here to Download


Click Here to Download


Click Here to Download


Click Here to Download


Click Here to Download


Click Here to Download


Click Here to Download

Single Links

24Uploading (Recommended)

Click Here to Download

Uploaded

Click Here to Download

RapidGator

Click Here to Download
Share with Your Friends
Written by ED12