Share with Your Friends

Download Furious Seven 2015 HDRIP x264 AC3 TiTAN

iMDB

Download Furious Seven 2015 HDRIP x264 AC3 TiTAN

(Plot)

Deckard Shaw seeks revenge against Dominic Toretto and his family for his comatose brother.

(Information)

Source: 1080p WEB

NO SUBS NICE CLEAN VID.. ENJOY

General

Format : Matroska
Format version : Version 2
File size : 1.45 GiB
Duration : 2h 17mn
Overall bit rate mode : Variable
Overall bit rate : 1 516 Kbps

Video
ID : 1
Format : AVC
Format/Info : Advanced Video Codec
Format profile : High@L4.1
Format settings, CABAC : Yes
Format settings, ReFrames : 3 frames
Codec ID : V_MPEG4/ISO/AVC
Duration : 2h 17mn
Bit rate mode : Variable
Bit rate : 1 294 Kbps
Maximum bit rate : 40.0 Mbps
Width : 720 pixels
Height : 288 pixels
Display aspect ratio : 2.500
Frame rate mode : Constant
Frame rate : 29.970 fps
Color space : YUV
Chroma subsampling : 4:2:0
Bit depth : 8 bits
Scan type : Progressive
Bits/(Pixel*Frame) : 0.208
Stream size : 1.24 GiB (85%)
Default : Yes
Forced : No
Color primaries : BT.709
Transfer characteristics : BT.709
Matrix coefficients : BT.709

Audio
ID : 2
Format : AC-3
Format/Info : Audio Coding 3
Mode extension : CM (complete main)
Format settings, Endianness : Big
Codec ID : A_AC3
Duration : 2h 17mn
Bit rate mode : Constant
Bit rate : 192 Kbps
Channel(s) : 2 channels
Channel positions : Front: L R
Sampling rate : 44.1 KHz
Bit depth : 16 bits
Compression mode : Lossy
Stream size : 188 MiB (13%)
Default : Yes
Forced : No


Download Title
Download Title
Download Title
Download Title
Download Title

Download Furious Seven 2015 HDRIP x264 AC3 TiTAN

24Uploading (Recommended)

Click Here to Download

MEDiAFREE

Click Here to Download

Uploaded

Click Here to Download

RapidGator

Click Here to Download
Share with Your Friends
Written by S H E R i F