Share with Your Friends

Download Godzilla.2014.R6.720p.HDSCR.x264.AC3-M2M
iMDB

Download Godzilla.2014.R6.720p.HDSCR.x264.AC3-M2M

Plot

In 1999, the Janjira nuclear plant was mysteriously destroyed with most hands lost including supervisor Joe Brody’s colleague and wife, Sandra. Years later, Joe’s son, Ford, a US Navy ordnance disposal officer, must go to Japan to help his estranged father who obsessively searches for the truth of the incident. In doing so, father and son discover the disaster’s secret cause on the wreck’s very grounds. This enables them to witness the reawakening of a terrible threat to all of Humanity, which is made all the worse with a second secret revival elsewhere. Against this cataclysm, the only hope for the world may be Godzilla, but the challenge for the King of the Monsters will be great even as Humanity struggles to understand the destructive ally they have.

Information

Format : Matroska
File size : 2.80 GiB
Duration : 1h 58mn
Overall bit rate : 3 396 Kbps
Encoded date : UTC 2010-02-22 21:41:31
Writing application : mkvmerge v5.9.0 (‘On The Loose’) built on Dec 9 2012 15:37:01
Writing library : libebml v1.3.0 + libmatroska v1.4.0
Video #1
ID : 1
Format : AVC
Format/Info : Advanced Video Codec
Format profile : High@L3.1
Format settings, CABAC : Yes
Format settings, ReFrames : 4 frames
Muxing mode : Container profile=Unknown@3.1
Codec ID : V_MPEG4/ISO/AVC
Duration : 1h 58mn
Bit rate : 2 944 Kbps
Nominal bit rate : 3 000 Kbps
Width : 1 280 pixels
Height : 546 pixels
Display aspect ratio : 2.35:1
Frame rate : 25.000 fps
Resolution : 8 bits
Colorimetry : 4:2:0
Scan type : Progressive
Bits/(Pixel*Frame) : 0.169
Stream size : 2.43 GiB (87%)
Writing library : x264 core 116 r2074 2641b9e

Audio #2
ID : 2
Format : AC-3
Format/Info : Audio Coding 3
Codec ID : A_AC3
Duration : 1h 58mn
Bit rate mode : Constant
Bit rate : 384 Kbps
Channel(s) : 2 channels
Channel positions : L R
Sampling rate : 44.1 KHz
Stream size : 324 MiB (11%)

Download Godzilla.2014.R6.720p.HDSCR.x264.AC3-M2M

Download Godzilla.2014.R6.720p.HDSCR.x264.AC3-M2M

Download Godzilla.2014.R6.720p.HDSCR.x264.AC3-M2M

Download Godzilla.2014.R6.720p.HDSCR.x264.AC3-M2M

PutLocker (FireDrive)

Click Here to Download

Click Here to Download


Click Here to Download

go4up

Click Here to Download

Click Here to Download


Click Here to Download

Uploaded.to

Click Here to Download

Click Here to Download


Click Here to Download

RapidGator

Click Here to Download

Click Here to Download


Click Here to Download
Share with Your Friends
Written by ED12