Share with Your Friends

Download 
 Gravity 2013 DVDSCR H264-NoGRP 330 MB
iMDB

Information

Complete name : files/G13RDHN.rmvb
Format : RealMedia
File size : 332 MiB
Duration : 1h 23mn
Overall bit rate : 549 Kbps
Movie name : Gravity.2013.-RMyinyu
Video
ID : 1
Format : RealVideo 4
Codec ID : RV40
Codec ID/Info : Based on AVC (H.264), Real Player 9
Duration : 1h 23mn
Bit rate : 453 Kbps
Width : 720 pixels
Height : 408 pixels
Display aspect ratio : 16:9
Frame rate : 23.976 fps
Bits/(Pixel*Frame) : 0.064
Stream size : 269 MiB (81%)
Audio
ID : 0
Format : AAC
Format/Info : Advanced Audio Codec
Format profile : LC
Codec ID : raac
Codec ID/Info : Real Player 9
Duration : 1h 23mn
Bit rate : 96.0 Kbps
Channel(s) : 2 channels
Sampling rate : 44.1 KHz
Bit depth : 16 bits
Compression mode : Lossy
Stream size : 57.1 MiB (17%)

Download  Gravity 2013 DVDSCR H264-NoGRP 330 MB
Download   Gravity 2013 DVDSCR H264-NoGRP 330 MB
Download   Gravity 2013 DVDSCR H264-NoGRP 330 MB

Download
Gravity 2013 DVDSCR H264-NoGRP 330 MB

Uploaded

Click Here to Download

Extabit

Click Here to Download

Rapidgator

Click Here to Download

Ultramegabit

Click Here to Download

Kingfiles

Click Here to Download

Terafile

Click Here to Download

Hugefiles

Click Here to Download

Putlocker

Click Here to Download
Share with Your Friends
Written by **Desire**