Share with Your Friends

Download Guilty At 17 (2014) HDTVRip Xvid Mp3-Morpheus
iMDB

Download Guilty At 17 (2014) HDTVRip Xvid Mp3-Morpheus

Plot

When 17-year-old Traci is lured into believing one of her friends was sexually assaulted by a teacher, she makes the mistake of lying to support the girl’s story and is consumed with guilt when the teacher then commits suicide. But this is just the beginning. Caught up in a web of deceit, Traci befriends and confides in a female teacher that’s more connected to the scam than Traci realizes, putting the girl in serious danger.

Information

General
Format : AVI
Format/Info : Audio Video Interleave
File size : 757 MiB
Duration : 1h 25mn
Overall bit rate : 1 233 Kbps

Video
ID : 0
Format : MPEG-4 Visual
Format profile : Advanced Simple@L5
Format settings, BVOP : 2
Format settings, QPel : No
Format settings, GMC : No warppoints
Format settings, Matrix : Default (H.263)
Codec ID : XVID
Codec ID/Hint : XviD
Duration : 1h 25mn
Bit rate : 1 099 Kbps
Width : 640 pixels
Height : 352 pixels
Display aspect ratio : 16:9
Frame rate : 23.976 fps
Color space : YUV
Chroma subsampling : 4:2:0
Bit depth : 8 bits
Scan type : Progressive
Compression mode : Lossy
Bits/(Pixel*Frame) : 0.203
Stream size : 675 MiB (89%)
Writing library : XviD 1.2.1 (UTC 2008-12-04)

Audio
ID : 1
Format : MPEG Audio
Format version : Version 1
Format profile : Layer 3
Mode : Joint stereo
Mode extension : MS Stereo
Codec ID : 55
Codec ID/Hint : MP3
Duration : 1h 25mn
Bit rate mode : Constant
Bit rate : 128 Kbps
Channel(s) : 2 channels
Sampling rate : 32.0 KHz
Compression mode : Lossy
Stream size : 78.6 MiB (10%)
Alignment : Aligned on interleaves
Interleave, duration : 167 ms (4.00 video frames)
Interleave, preload duration : 216 ms

Download Guilty At 17 (2014) HDTVRip Xvid Mp3-Morpheus

Download Guilty At 17 (2014) HDTVRip Xvid Mp3-Morpheus

Download Guilty At 17 (2014) HDTVRip Xvid Mp3-Morpheus

Download Guilty At 17 (2014) HDTVRip Xvid Mp3-Morpheus

HugeFile

Click Here to Download

180Upload

Click Here to Download

BillionUploads

Click Here to Download

PutLocker (FireDrive)

Click Here to Download

UploadRocket

Click Here to Download

TurboBit

Click Here to Download

Uploaded.to

Click Here to Download

RapidGator

Click Here to Download(2014)_HDTVRip_Xvid_Mp3-Morpheus.avi.html
Share with Your Friends
Written by ED12