Share with Your Friends

Download Title iMDB

Download Haunting of Cellblock 11 2014 WEBRip 530MB

Plot

A group of ghost hunters must up their game to compete in the competitive world of paranormal TV shows, leading them to a truly haunted prison with a grisly past that proves to be more than they bargained for.

Information

Format : AVI File size : 533 MiB Duration : 1h 24mn Video Format : MPEG-4 Visual Codec ID : XVID Duration : 1h 24mn Bit rate : 742 Kbps Width : 640 pixels Height : 360 pixels Display aspect ratio : 16:9 Frame rate : 29.970 fps Stream size : 448 MiB (84%) Audio Format : MPEG Audio Codec ID/Hint : MP3 Duration : 1h 24mn Bit rate : 128 Kbps Stream size : 77.2 MiB (14%) Download Title

Download Haunting of Cellblock 11 2014 WEBRip 530MB

24Uploading (Recommended)

Click Here to Download

ClicknUpload

Click Here to Download

UPLOADED

Click Here to Download

MEDiAFREE

Click Here to Download
Share with Your Friends
Written by S H E R i F