Share with Your Friends

Download 
Heatstroke 2013 DVDRip x264 AC3-MiLLENiUM
Click Here to Download

Information

General
Complete name : Heatstroke 2013 DVDRip x264 AC3-MiLLENiUM.mkv
Format : Matroska
Format version : Version 2
File size : 1.13 GiB
Duration : 1h 31mn
Overall bit rate mode : Variable
Overall bit rate : 1 763 Kbps
Encoded date : UTC 2013-12-20 16:01:35
Writing application : mkvmerge v6.5.0 (‘Isn’t she lovely’) built on Oct 20 2013 12:50:05
Writing library : libebml v1.3.0 + libmatroska v1.4.1

Video
ID : 1
Format : AVC
Format/Info : Advanced Video Codec
Format profile : High@L4.1
Format settings, CABAC : Yes
Format settings, ReFrames : 3 frames
Codec ID : V_MPEG4/ISO/AVC
Duration : 1h 31mn
Bit rate mode : Variable
Bit rate : 1 377 Kbps
Maximum bit rate : 40.0 Mbps
Width : 720 pixels
Height : 400 pixels
Display aspect ratio : 16:9
Frame rate mode : Constant
Frame rate : 23.976 fps
Color space : YUV
Chroma subsampling : 4:2:0
Bit depth : 8 bits
Scan type : Progressive
Bits/(Pixel*Frame) : 0.199
Stream size : 878 MiB (76%)
Writing library : x264 core 140 r2377 1ca7bb9

Audio
ID : 2
Format : AC-3
Format/Info : Audio Coding 3
Mode extension : CM (complete main)
Format settings, Endianness : Big
Codec ID : A_AC3
Duration : 1h 31mn
Bit rate mode : Constant
Bit rate : 384 Kbps
Channel(s) : 6 channels
Channel positions : Front: L C R, Side: L R, LFE
Sampling rate : 48.0 KHz
Bit depth : 16 bits
Compression mode : Lossy
Stream size : 251 MiB (22%)
Language : English
Default : Yes
Forced : No

Download Heatstroke 2013 DVDRip x264 AC3-MiLLENiUM
Download Heatstroke 2013 DVDRip x264 AC3-MiLLENiUM
Download Heatstroke 2013 DVDRip x264 AC3-MiLLENiUM
Download Heatstroke 2013 DVDRip x264 AC3-MiLLENiUM

Download
Heatstroke 2013 DVDRip x264 AC3-MiLLENiUM

Uploaded

Click Here to Download

Rapidgator

Click Here to Download

Kingfiles

Click Here to Download

Hugefiles

Uploading

Putlocker

Click Here to Download
Share with Your Friends
Written by **Desire**