Share with Your Friends


iMDB

Download Hellion 2014 1080p WEB-DL DD5.1 H264-RBG

Plot

When motocross and heavy metal obsessed thirteen-year-old Jacob’s increasing delinquent behavior forces CPS to place his little brother, Wes, with his aunt, Jacob and his emotionally absent father, Hollis, must finally take responsibility for their actions and for each other in order to bring Wes home.

Information

Video
ID : 1
Format : AVC
Format/Info : Advanced Video Codec
Format profile : High@L4.0
Format settings, CABAC : Yes
Format settings, ReFrames : 5 frames
Codec ID : V_MPEG4/ISO/AVC
Duration : 1h 39mn
Bit rate : 3 784 Kbps
Width : 1 920 pixels
Height : 792 pixels
Display aspect ratio : 2.40:1
Frame rate mode : Constant
Frame rate : 23.976 fps
Color space : YUV
Chroma subsampling : 4:2:0
Bit depth : 8 bits
Scan type : Progressive
Bits/(Pixel*Frame) : 0.104
Stream size : 2.63 GiB (89%)
Title : Hellion.2014.1080p.WEB-DL.DD5.1.H264-RBG
Language : English
Default : Yes
Forced : No
Color primaries : BT.709
Transfer characteristics : BT.709
Matrix coefficients : BT.709

Audio
ID : 2
Format : AC-3
Format/Info : Audio Coding 3
Mode extension : CM (complete main)
Format settings, Endianness : Big
Codec ID : A_AC3
Duration : 1h 39mn
Bit rate mode : Constant
Bit rate : 384 Kbps
Channel(s) : 6 channels
Channel positions : Front: L C R, Side: L R, LFE
Sampling rate : 48.0 KHz
Bit depth : 16 bits
Compression mode : Lossy
Stream size : 273 MiB (9%)
Title : Hellion.2014.1080p.WEB-DL.DD5.1.H264-RBG
Language : English
Default : Yes
Forced : No

Download Hellion 2014 1080p WEB-DL DD5.1 H264-RBG

PutLocker (FireDrive)

Click Here to Download

Click Here to Download


Click Here to Download


Click Here to Download

Go4Up

Click Here to Download

Click Here to Download


Click Here to Download


Click Here to Download

Uploaded.to

Click Here to Download

Click Here to Download


Click Here to Download


Click Here to Download
Share with Your Friends
Written by ED12