Share with Your Friends


iMDB

Download Hellion 2014 HDRIP x264 AC3-TiTAN

Plot

When motocross and heavy metal obsessed thirteen-year-old Jacob’s increasing delinquent behavior forces CPS to place his little brother, Wes, with his aunt, Jacob and his emotionally absent father, Hollis, must finally take responsibility for their actions and for each other in order to bring Wes home.

Information

Format : Matroska
Format version : Version 2
File size : 782 MiB
Duration : 1h 39mn
Overall bit rate mode : Variable
Overall bit rate : 1 101 Kbps
Encoded date : UTC 2014-06-17 12:44:35
Writing application : mkvmerge v7.0.0 (‘Where We Going’) 32bit built on Jun 9 2014 >>
15:08:34
Writing library : libebml v1.3.0 + libmatroska v1.4.1
DURATION : 01:39:19.232000000

Video
ID : 1
Format : AVC
Format/Info : Advanced Video Codec
Format profile : High@L4.1
Format settings, CABAC : Yes
Format settings, ReFrames : 3 frames
Codec ID : V_MPEG4/ISO/AVC
Duration : 1h 39mn
Bit rate mode : Variable
Bit rate : 855 Kbps
Maximum bit rate : 40.0 Mbps
Width : 720 pixels
Height : 304 pixels
Display aspect ratio : 2.35:1
Frame rate mode : Constant
Frame rate : 23.976 fps
Color space : YUV
Chroma subsampling : 4:2:0
Bit depth : 8 bits
Scan type : Progressive
Bits/(Pixel*Frame) : 0.163
Stream size : 608 MiB (78%)
Writing library : x264 core 142 r2431 ac76440
Default : Yes
Forced : No
Color primaries : BT.709
Transfer characteristics : BT.709
Matrix coefficients : BT.709

Audio
ID : 2
Format : AC-3
Format/Info : Audio Coding 3
Mode extension : CM (complete main)
Format settings, Endianness : Big
Codec ID : A_AC3
Duration : 1h 39mn
Bit rate mode : Constant
Bit rate : 224 Kbps
Channel(s) : 6 channels
Channel positions : Front: L C R, Side: L R, LFE
Sampling rate : 48.0 KHz
Bit depth : 16 bits
Compression mode : Lossy
Stream size : 159 MiB (20%)
Default : Yes
Forced : No

Download Hellion 2014 HDRIP x264 AC3-TiTAN

PutLocker (FireDrive)

Click Here to Download

Go4Up

Click Here to Download

Uploaded.to

Click Here to Download
Share with Your Friends
Written by ED12