Share with Your Friends

Download Title
iMDB

Download Horrible Bosses 2 (2014) HD English CHS 457MB

Plot

Horrible Bosses 2 (2014)
Dale, Kurt and Nick decide to start their own business but things don’t go as planned because of a slick investor, prompting the trio to pull off a harebrained and misguided kidnapping scheme.

Information

Genre: Comedy
iMDB Rating: 7.1/10 from 10,403 users
Director: Sean Anders
Starring: Jason Bateman, Jason Sudeikis, Charlie Day

Horrible Bosses 2 2014 English CHS.mp4
Format : MPEG-4
File size : 458 MiB
Duration : 1h 48mn

Video
Format : AVC
Duration : 1h 48mn
Bit rate : 486 Kbps
Width : 640 pixels
Height : 264 pixels
Frame rate : 30.000 fps
Stream size : 377 MiB (82%)

Audio
Format : AAC
Duration : 1h 48mn
Bit rate : 96.0 Kbps
Maximum bit rate : 2 500 Kbps
Channel(s) : 2 channels
Stream size : 74.4 MiB (16%)

Download Title

Download Horrible Bosses 2 (2014) HD English CHS 457MB

24Uploading (Recommended)

Click Here to Download

ClicknUpload

Click Here to Download

UPLOADED

Click Here to Download

MEDiAFREE

Click Here to Download

Xfileload

Click Here to Download

>

Share with Your Friends
Written by S H E R i F