Share with Your Friends

Download Hot Tub Time Machine 2 2015 UNRATED 1080p WEB-DL DD5.1 H264-RARBG
iMDB

Download Hot Tub Time Machine 2 2015 UNRATED 1080p WEB-DL DD5.1 H264-RARBG

Plot

When Lou finds himself in trouble, Nick and Jacob fire up the hot tub time machine in an attempt to get back to the past. But they inadvertently land in the future with Adam Jr. Now they have to alter the future in order to save the past – which is really the present.

Information

Video
ID : 1
Format : AVC
Format/Info : Advanced Video Codec
Format profile : High L4.0
Format settings, CABAC : Yes
Format settings, ReFrames : 4 frames
Codec ID : V_MPEG4/ISO/AVC
Duration : 1h 39mn
Bit rate : 5 200 Kbps
Width : 1 916 pixels
Height : 1 032 pixels
Display aspect ratio : 1.85:1
Frame rate mode : Constant
Frame rate : 23.976 fps
Color space : YUV
Chroma subsampling : 4:2:0
Bit depth : 8 bits
Scan type : Progressive
Bits/(Pixel*Frame) : 0.110
Stream size : 3.60 GiB (91%)

Audio
ID : 2
Format : AC-3
Format/Info : Audio Coding 3
Mode extension : CM (complete main)
Format settings, Endianness : Big
Codec ID : A_AC3
Duration : 1h 39mn
Bit rate mode : Constant
Bit rate : 384 Kbps
Channel(s) : 6 channels
Channel positions : Front: L C R, Side: L R, LFE
Sampling rate : 48.0 KHz
Bit depth : 16 bits
Compression mode : Lossy
Stream size : 273 MiB (7%)
Language : English
Default : Yes
Forced : No

Download Hot Tub Time Machine 2 2015 UNRATED 1080p WEB-DL DD5.1 H264-RARBG

Download Hot Tub Time Machine 2 2015 UNRATED 1080p WEB-DL DD5.1 H264-RARBG

Download Hot Tub Time Machine 2 2015 UNRATED 1080p WEB-DL DD5.1 H264-RARBG

Download Hot Tub Time Machine 2 2015 UNRATED 1080p WEB-DL DD5.1 H264-RARBG

Download Hot Tub Time Machine 2 2015 UNRATED 1080p WEB-DL DD5.1 H264-RARBG

Download Hot Tub Time Machine 2 2015 UNRATED 1080p WEB-DL DD5.1 H264-RARBG

Download Hot Tub Time Machine 2 2015 UNRATED 1080p WEB-DL DD5.1 H264-RARBG

Uploaded

Click Here to Download

Click Here to Download


Click Here to Download


Click Here to Download


Click Here to Download

RapidGator

Click Here to Download

Click Here to Download


Click Here to Download


Click Here to Download


Click Here to Download
Share with Your Friends
Written by ED12