Share with Your Friends

Download Humpty Sharma Ki Dulhania 2014 Hindi 720p DVDRip x264 ESubs-TeamTNT
iMDB

Download Humpty Sharma Ki Dulhania 2014 Hindi 720p DVDRip x264 ESubs-TeamTNT

Plot

When Kavya Pratap Singh, a chirpy, yet feisty girl from Ambala, decides to make a trip to Delhi for her marriage shopping, she meets a young, carefree Delhi lad, Humpty Sharma. Humpty’s father is the owner of a campus bookstore, where Humpty and his two best friends, Shonty and Poplu, have grown up together and which remains their hangout spot even now. Kavya is unattainable for Humpty initially, which makes her even more endearing to him. But being a Delhi boy, he is not the one to give up so easily. With some help from his two best friends, he finds out all about her and through an interesting turn of events (including a ploy to save Kavya’s friend Gurpreet’s marriage), they start growing closer to each other. The more time they spend with each other, their love-hate banter grows, but their chemistry is apparent. They are both different, yet very similar as people. They are young, feisty and carefree, and it’s the spurge of life which attracts them to each other. As per plan, once Kavya’s trip ends, she heads back to Ambala, knowing very well that her father, the very strict, yet loving Mr. Singh, would never accept her love for Humpty. But even though they both weren’t looking for love, love happened. So Humpty, accompanied by his two friends, decides to go get Kavya. That’s the beginning of a journey for him that he wouldn’t have imagined undertaking even in the wildest of his dreams. Humpty, against all odds, decides to convince Kavya’s family to agree to his alliance with her. How he does this and if he succeeds in his mission forms the rest of the story.

Information

General
Format : Matroska
Format version : Version 4 / Version 2
File size : 970 MiB
Duration : 2h 11mn
Overall bit rate : 1 030 Kbps
Encoded date : UTC 2014-08-21 12:53:03
Writing library : libebml v1.3.0 + libmatroska v1.4.1

Video
ID : 1
Format : AVC
Format/Info : Advanced Video Codec
Format profile : High@L3.1
Format settings, CABAC : Yes
Format settings, ReFrames : 4 frames
Codec ID : V_MPEG4/ISO/AVC
Duration : 2h 11mn
Bit rate : 900 Kbps
Width : 1 280 pixels
Height : 544 pixels
Display aspect ratio : 2.35:1
Frame rate mode : Constant
Frame rate : 23.976 fps
Color space : YUV
Chroma subsampling : 4:2:0
Bit depth : 8 bits
Scan type : Progressive
Bits/(Pixel*Frame) : 0.054
Stream size : 830 MiB (86%)
Title : Mafiaking
Language : Hindi
Default : Yes
Forced : No

Audio
ID : 2
Format : MPEG Audio
Format version : Version 1
Format profile : Layer 3
Mode : Joint stereo
Mode extension : MS Stereo
Codec ID : A_MPEG/L3
Codec ID/Hint : MP3
Duration : 2h 11mn
Bit rate mode : Constant
Bit rate : 128 Kbps
Channel(s) : 2 channels
Sampling rate : 48.0 KHz
Compression mode : Lossy
Stream size : 121 MiB (12%)
Title : Mafiaking
Writing library : LAME3.99r
Language : Hindi
Default : Yes
Forced : No

Download Humpty Sharma Ki Dulhania 2014 Hindi 720p DVDRip x264 ESubs-TeamTNT

Download Humpty Sharma Ki Dulhania 2014 Hindi 720p DVDRip x264 ESubs-TeamTNT

Download Humpty Sharma Ki Dulhania 2014 Hindi 720p DVDRip x264 ESubs-TeamTNT

Download Humpty Sharma Ki Dulhania 2014 Hindi 720p DVDRip x264 ESubs-TeamTNT

HugeFile

Click Here to Download

180Upload

Click Here to Download

BillionUploads

Click Here to Download

Sockshare

Click Here to Download

PutLocker (FireDrive)

Click Here to Download

UploadRocket

Click Here to Download

TurboBit

Click Here to Download

Uploaded.to

Click Here to Download

RapidGator

Click Here to Download
Share with Your Friends
Written by ED12